<?xml version="1.0" standalone="no"?>
<!DOCTYPE svg PUBLIC "-//W3C//DTD SVG 1.1//EN" "http://www.w3.org/Graphics/SVG/1.1/DTD/svg11.dtd" >
<svg xmlns="http://www.w3.org/2000/svg">
<metadata>
This is a custom SVG webfont generated by Font Squirrel.
Designer    : Jos Buivenga
Foundry URL : httpwwwexljbriscom
</metadata>
<defs>
<font id="webfontCqnePKc6" horiz-adv-x="942" >
<font-face units-per-em="2048" ascent="1536" descent="-512" />
<missing-glyph horiz-adv-x="460" />
<glyph unicode=" "  horiz-adv-x="460" />
<glyph unicode="&#x09;" horiz-adv-x="460" />
<glyph unicode="&#xa0;" horiz-adv-x="460" />
<glyph unicode="!" horiz-adv-x="565" d="M154 98.5q0 51.5 35.5 87t87 35.5t87 -35.5t35.5 -87t-35.5 -87.5t-87 -36t-87 36t-35.5 87.5zM164 1343q182 49 237 74l7 -6q-23 -66 -35 -221l-68 -830h-51z" />
<glyph unicode="&#x22;" horiz-adv-x="700" d="M127 883v483h166v-76l-88 -407h-78zM446 883v483h166v-76l-88 -407h-78z" />
<glyph unicode="#" horiz-adv-x="1296" d="M59 266l17 92h260l63 312h-262l17 92h264l88 422h98l-88 -422h332l88 422h98l-88 -422h285l-17 -92h-286l-64 -312h289l-16 -92h-291l-90 -448h-101l93 448h-332l-90 -448h-101l92 448h-258zM434 358h332l63 312h-331z" />
<glyph unicode="$" horiz-adv-x="901" d="M74 174q0 14 43 164h63q0 -246 209 -277l17 428q-78 39 -117 61.5t-94.5 67t-80 97.5t-24.5 121q0 121 89 206.5t253 100.5l8 180h82l-8 -176q115 -2 291 -35l-57 -287h-64q10 98 -34 167t-138 79l-16 -414l82 -41q20 -10 72 -40.5t74 -53.5l52 -57q31 -35 42 -76t11 -90 q0 -139 -101 -219t-261 -92l-6 -170h-82l6 170q-125 6 -218 53t-93 133zM250 901q0 -115 164 -205l16 373q-80 -10 -130 -53t-50 -115zM471 59q86 8 141.5 52.5t55.5 119.5q0 72 -47.5 122t-133.5 96z" />
<glyph unicode="%" horiz-adv-x="1468" d="M66 1038q0 127 91 217.5t218 90.5t218 -90.5t91 -217.5t-91 -217t-218 -90t-218 90t-91 217zM176 1038q0 -86 58.5 -148.5t140.5 -62.5t140 62.5t58 148.5t-58 148.5t-140 62.5t-140.5 -62.5t-58.5 -148.5zM205 0l956 1376l80 -55l-919 -1321h-117zM791 281q0 127 91 217 t218 90t218 -90t91 -217t-91 -217.5t-218 -90.5t-218 90.5t-91 217.5zM901 281q0 -86 58.5 -148.5t140.5 -62.5t140 62.5t58 148.5t-58 148.5t-140 62.5t-140.5 -62.5t-58.5 -148.5z" />
<glyph unicode="&#x26;" horiz-adv-x="1347" d="M76 315q0 66 23.5 121.5t75.5 106.5t94 81.5l118 82.5q-125 223 -125 374q0 127 84 218.5t250 91.5q139 0 216 -72t77 -176q0 -121 -80 -212t-227 -196q139 -229 352 -452q80 98 126 220t46 236.5t-133 130.5v52h293l10 -31q-18 -37 -72 -201q-96 -305 -217 -463 q205 -211 326 -270l-29 -43q-188 31 -401 201q-166 -139 -394 -140q-164 0 -288.5 88t-124.5 252zM252 383q0 -147 83 -228t210 -81q143 0 272 96q-231 207 -393 473q-172 -127 -172 -260zM436 1130q0 -131 109 -331q168 139 168 303q0 84 -34 149.5t-114 65.5 q-59 0 -94 -52.5t-35 -134.5z" />
<glyph unicode="'" horiz-adv-x="380" d="M127 883v483h162v-76l-76 -407h-86z" />
<glyph unicode="(" horiz-adv-x="577" d="M92 553q0 152 34 295t82 239.5t95 171t82 109.5l33 37l69 -25q-10 -14 -26.5 -39.5t-57.5 -110.5t-72.5 -175t-58 -227.5t-26.5 -274.5q0 -150 29.5 -296t71.5 -247.5t85 -180.5t72 -118l31 -39l-66 -30l-40 40q-26 26 -91.5 114.5t-114.5 188t-90 254t-41 314.5z" />
<glyph unicode=")" horiz-adv-x="577" d="M43 -328q12 14 31.5 41t69 115t88 183t69.5 243.5t31 298.5q0 408 -199 758l-43 69l70 25q12 -12 34.5 -37t79 -107.5t99.5 -175t77.5 -236.5t34.5 -296q0 -160 -38.5 -313.5t-94 -257t-111 -184.5t-94.5 -117l-38 -39z" />
<glyph unicode="*" horiz-adv-x="1009" d="M126 839.5q-1 30.5 24 43.5l239 65q27 8 47 4q-6 -20 -26 -39l-177 -172q-27 -16 -52 -0.5t-39.5 42t-15.5 57zM126 1143q1 31 15.5 57.5t44 44t47.5 -1.5l177 -174q20 -18 26 -39q-20 -4 -47 4l-237 66q-27 12 -26 43zM422 631l61 239l21 43q14 -16 20 -43l62 -239 q6 -27 -22.5 -42.5t-59.5 -15.5t-59.5 15.5t-22.5 42.5zM422 1352q-6 27 22.5 42t59.5 15t59.5 -15.5t22.5 -41.5l-62 -240l-20 -43q-14 16 -21 43zM571 952q20 4 47 -4l238 -65q27 -12 26 -43t-15.5 -57.5t-44 -44t-48.5 0.5l-176 174q-21 19 -27 39zM571 1030q6 20 27 39 l176 172q27 16 52.5 1t40 -41.5t15.5 -57.5t-24 -43l-240 -66q-27 -8 -47 -4z" />
<glyph unicode="+" horiz-adv-x="1064" d="M74 457v112h401v430h121v-430h395v-112h-395v-457h-121v457h-401z" />
<glyph unicode="," horiz-adv-x="473" d="M104 -297q141 121 142 217q0 92 -133 168v72l157 84q92 -96 92 -230q0 -119 -53 -199.5t-153 -164.5z" />
<glyph unicode="-" horiz-adv-x="737" d="M127 444v136h483v-136h-483z" />
<glyph unicode="." horiz-adv-x="479" d="M117 98.5q0 51.5 35.5 87t87 35.5t87 -35.5t35.5 -87t-35.5 -87.5t-87 -36t-87 36t-35.5 87.5z" />
<glyph unicode="/" horiz-adv-x="720" d="M-53 -401l682 1767h131l-680 -1767h-133z" />
<glyph unicode="0" horiz-adv-x="1157" d="M119 467q0 211 125 365.5t350 154.5q209 0 326.5 -141t117.5 -338q0 -213 -126 -373t-349 -160q-209 0 -326.5 146.5t-117.5 345.5zM293 485q0 -166 79 -289.5t206 -123.5q131 0 208.5 125t77.5 292q0 158 -78.5 280t-205.5 122q-129 0 -208 -122t-79 -284z" />
<glyph unicode="1" horiz-adv-x="755" d="M109 893v70h536l-8 -66l-182 -23v-684l-11 -108l211 -21l-8 -61l-528 -10v69q96 0 134 30t38 101v582q0 72 -36.5 96.5t-145.5 24.5z" />
<glyph unicode="2" horiz-adv-x="960" d="M102 815q6 6 15.5 18.5t43.5 42t71.5 52t97 41t123.5 18.5q115 0 201.5 -66.5t86.5 -189.5q0 -223 -430 -586h297q51 0 87 13.5t58.5 42t35 53.5t26.5 65h59l-63 -319h-690l-17 63q4 2 56 49l65 59l64 60q49 47 68 71l60 69q40 45 57 76l40 74q23 42 32 81t9 76 q0 90 -50 134t-128 44q-121 0 -236 -86z" />
<glyph unicode="3" horiz-adv-x="823" d="M47 815q6 6 15.5 18.5t43 42t69.5 52t92.5 41t115.5 18.5q127 0 210 -68.5t83 -185.5q0 -111 -98.5 -210t-212.5 -146q166 -16 261 -97t95 -200q0 -121 -58.5 -217t-150.5 -150.5t-194.5 -82t-204.5 -27.5l-43 2l-13 71q82 0 160 18.5t151.5 58.5t118.5 117t45 179 q0 129 -89 183.5t-214 54.5l-59 -4v96q119 12 219 101t100 210q0 78 -44 129t-126 51q-53 0 -111 -25.5t-89 -49.5l-33 -25z" />
<glyph unicode="4" horiz-adv-x="1046" d="M45 131l617 827l108 33l4 -6q-16 -78 -16 -223v-572h225l-25 -120h-200v-338q0 -35 -2 -63.5t-6 -39.5l-2 -10l-158 -16l-8 6q10 39 10 112v349h-533zM193 190h399v414q0 55 8 133z" />
<glyph unicode="5" horiz-adv-x="839" d="M86 -324q211 0 349 102.5t138 256.5q0 88 -49 155.5t-118.5 101.5t-140 56.5t-120.5 28.5l-49 4l31 582h432l143 12l-28 -158h-471l-17 -291q12 -2 33 -5t79 -17.5t111.5 -33.5t118 -57t111.5 -83t79 -115t32 -149q0 -193 -178.5 -328t-413.5 -135l-60 2z" />
<glyph unicode="6" horiz-adv-x="1052" d="M113 571q0 154 46 297.5t133 261t230.5 189.5t321.5 72l12 -72q-143 -8 -253.5 -75.5t-175.5 -173t-96.5 -226.5t-31.5 -250q0 -223 77 -386t199 -163q100 0 160 103.5t60 236.5q0 82 -19.5 157.5t-60.5 138t-106.5 83t-157.5 -9.5l-15 65q88 51 191 51q168 0 257 -121.5 t89 -299.5q0 -186 -114 -330t-312 -144q-139 0 -239.5 84t-147.5 216t-47 296z" />
<glyph unicode="7" horiz-adv-x="970" d="M57 668l60 295h676l131 8l10 -56q-70 -94 -100 -165l-433 -973l-19 -46q-11 -28 -17 -40l-16 -31q-9 -18 -15 -25.5t-15.5 -16.5t-20.5 -12t-24 -3q-72 0 -71 67q0 10 2 19.5t4 16.5t10 21l12 20q4 7 19 30l22 35q158 244 351 665l149 330q-78 -8 -133 -8h-311 q-111 0 -144.5 -18.5t-66.5 -112.5h-60z" />
<glyph unicode="8" horiz-adv-x="1036" d="M111 317q0 133 75.5 224.5t208.5 175.5q-113 94 -174 179t-61 183q0 133 107.5 222.5t275.5 89.5q154 0 247 -79t93 -206q0 -63 -21.5 -115.5t-69 -97.5t-81 -69.5t-99.5 -65.5q80 -63 118 -97t94.5 -92.5t80 -116t23.5 -118.5q0 -143 -123 -251t-301 -108 q-158 0 -275.5 87t-117.5 255zM276 342q0 -135 69 -215t169 -80q92 0 169 63.5t77 168.5q0 55 -21.5 105t-82 110.5t-87.5 83.5l-118 96q-175 -133 -175 -332zM328 1124q0 -84 58 -156.5t171 -164.5q160 119 160 289q0 106 -55.5 166.5t-133.5 60.5q-76 0 -138 -54.5 t-62 -140.5z" />
<glyph unicode="9" horiz-adv-x="1079" d="M125 514q0 186 112.5 329.5t303.5 143.5q209 0 321.5 -169t112.5 -417q0 -152 -46 -292t-133 -254.5t-230.5 -183t-321.5 -68.5l-13 71q143 8 254 73t175.5 167t96 219t31.5 246q0 219 -76.5 379t-199.5 160q-94 0 -151.5 -103.5t-57.5 -236.5q0 -76 18.5 -150 t58.5 -137.5t103.5 -83t153.5 11.5l14 -65q-88 -51 -190 -52q-162 0 -249 119t-87 293z" />
<glyph unicode=":" horiz-adv-x="561" d="M158 98.5q0 51.5 35.5 87t87 35.5t87 -35.5t35.5 -87t-35.5 -87.5t-87 -36t-87 36t-35.5 87.5zM158 799q0 51 35.5 87t87 36t87 -36t35.5 -87t-35.5 -87t-87 -36t-87 36t-35.5 87z" />
<glyph unicode=";" horiz-adv-x="555" d="M150 -297q141 121 141 217q0 92 -133 168v72l157 84q92 -96 93 -230q0 -119 -53.5 -199.5t-153.5 -164.5zM154 799q0 51 35.5 87t87 36t87 -36t35.5 -87t-35.5 -87t-87 -36t-87 36t-35.5 87z" />
<glyph unicode="&#x3c;" horiz-adv-x="1064" d="M57 463v94l873 469l31 -119l-756 -397l756 -418l-31 -117z" />
<glyph unicode="=" horiz-adv-x="1064" d="M74 262v113h917v-113h-917zM74 651v113h917v-113h-917z" />
<glyph unicode="&#x3e;" horiz-adv-x="1064" d="M102 92l756 418l-756 397l31 119l873 -469v-94l-873 -488z" />
<glyph unicode="?" horiz-adv-x="718" d="M98 1255l33 181l59 -23q37 -14 131.5 -59t166 -91t131 -113t59.5 -130q0 -47 -39 -99.5t-95.5 -105.5t-111.5 -115.5t-94 -150.5t-39 -189h-51q-10 45 -10 103q0 94 38.5 179t87 136t87 104.5t38.5 92.5t-39.5 82t-97 76.5t-116 62.5t-97.5 45zM158 98.5q0 51.5 35.5 87 t87 35.5t87 -35.5t35.5 -87t-35.5 -87.5t-87 -36t-87 36t-35.5 87.5z" />
<glyph unicode="@" horiz-adv-x="1675" d="M72 377q0 221 110.5 414.5t302 310.5t414.5 117q293 0 489.5 -189.5t196.5 -476.5q0 -201 -102.5 -359.5t-315.5 -189.5l-215 -31l-4 9q16 59 17 110v80q-49 -90 -122 -143.5t-155 -53.5q-113 0 -192.5 96.5t-79.5 266.5q0 248 162.5 420t390.5 172q113 0 182 -19 q-27 -98 -27 -180v-549q0 -96 74 -96q35 0 74 18.5t80 59.5t66.5 124t25.5 197q0 281 -151.5 460t-422.5 179q-291 0 -472 -205.5t-181 -512.5q0 -289 157.5 -470.5t379.5 -193.5l-21 -82q-283 12 -472 218t-189 499zM594 387q0 -145 47 -213t115 -68q88 0 200 109v633 q-14 0 -38.5 -4t-87 -32t-110.5 -72t-87 -137t-39 -216z" />
<glyph unicode="A" horiz-adv-x="1275" d="M-27 0v59q104 10 138 93l485 1208l84 18l455 -1163q39 -96 69.5 -124t85.5 -36l-8 -55h-88l-311 -6v69q51 2 76 20q16 11 16 31q0 13 -6 29l-125 328h-490l-26 -20l-142 -369l174 -25l-8 -57h-379zM367 557h444l-176 467q-23 57 -41 125z" />
<glyph unicode="B" horiz-adv-x="1234" d="M90 1315v51h479q244 0 361 -84t117 -215q0 -201 -244 -336q49 -10 96 -28.5t109.5 -56.5t100.5 -104.5t38 -154.5q0 -170 -144.5 -278.5t-410.5 -108.5h-184l-297 -6v65q147 16 147 127v979q0 76 -26.5 101.5t-141.5 48.5zM428 80h131q381 0 381 276q0 307 -426 308h-55 l-21 -21v-450zM438 743h211q76 4 136.5 94.5t60.5 190.5q0 104 -73 181t-218 77h-96l-21 -20v-523z" />
<glyph unicode="C" horiz-adv-x="1390" d="M92 668q0 315 210 519t540 204q68 0 151.5 -9.5t169.5 -21.5l121 -17l-61 -311h-70q0 147 -101.5 214t-244.5 67q-233 0 -378.5 -167t-145.5 -419q0 -272 169 -444t422 -172q227 0 396 131l16 14l29 -43q-6 -10 -18.5 -25.5t-58.5 -56.5t-99.5 -72.5t-143.5 -57.5 t-190 -26q-186 0 -346 79t-263.5 240t-103.5 374z" />
<glyph unicode="D" horiz-adv-x="1527" d="M90 1315v51h561q158 0 291 -31.5t247 -102.5t178.5 -198t64.5 -301q0 -342 -234.5 -537.5t-624.5 -195.5h-165l-297 -6v65q147 16 147 127v979q0 76 -26.5 101.5t-141.5 48.5zM428 80h145q340 0 498 166t158 440q0 276 -151.5 438t-434.5 162h-184l-21 -20v-1071z" />
<glyph unicode="E" horiz-adv-x="1198" d="M90 1315v51h844l147 8l-63 -342h-70q1 21 1 41q0 118 -43 162q-50 51 -179 51h-268l-21 -20v-533h379l17 117l75 12v-360h-96v151h-354l-21 -20v-438l-10 -115h322q127 0 175 43t128 211h69l-75 -334h-639l-297 -6v65q147 16 147 127v979q0 76 -26.5 101.5t-141.5 48.5z " />
<glyph unicode="F" horiz-adv-x="1087" d="M90 1315v51h823l148 8l-64 -342h-69q1 21 1 41q0 118 -43 162q-50 51 -179 51h-248l-21 -20v-543h365l16 117l76 12v-360h-96v151h-340l-21 -20v-430l-10 -111l225 -19l-8 -57l-534 -12v65q70 8 108.5 43t38.5 91v972q0 76 -26.5 101.5t-141.5 48.5z" />
<glyph unicode="G" horiz-adv-x="1458" d="M94 655q0 141 46 270.5t136.5 235t240 168t337.5 62.5q78 0 174 -9.5t182 -21.5t103 -14l-62 -314h-69q-2 154 -99.5 217.5t-242.5 63.5q-256 0 -400.5 -176t-144.5 -435q0 -281 174 -460t455 -179q94 0 204 25v297q0 78 -29.5 104.5t-158.5 45.5v51h436l10 -29 q-8 -4 -21 -14.5t-35.5 -60.5t-22.5 -120v-333q-346 -53 -465 -54q-209 0 -376 77t-269.5 233.5t-102.5 369.5z" />
<glyph unicode="H" horiz-adv-x="1640" d="M104 1315v51h160l230 8l10 -8q-68 -78 -68 -248v-381h762l21 21v407q0 80 -21.5 103.5t-130.5 46.5v51h160l229 6l10 -8q-68 -76 -67 -246v-925l-10 -111l184 -19l-8 -57l-494 -12v65q68 8 108 42t40 85v465h-762l-21 -20v-438l-10 -111l184 -19l-8 -57l-493 -12v65 q70 8 108.5 43t38.5 91v972q0 80 -21.5 103.5t-130.5 46.5z" />
<glyph unicode="I" horiz-adv-x="677" d="M104 1315v51h160l230 8l10 -8q-68 -78 -68 -248v-932l-10 -104l195 -19l-9 -57l-503 -12v65q68 8 107.5 42t39.5 85v979q0 80 -21.5 103.5t-130.5 46.5z" />
<glyph unicode="J" horiz-adv-x="628" d="M20 -285q86 12 152 124t66 263v1063q0 80 -21.5 103.5t-130.5 46.5v51h160l229 8l10 -8q-68 -78 -67 -248v-909q0 -256 -100.5 -399.5t-272.5 -143.5z" />
<glyph unicode="K" horiz-adv-x="1316" d="M104 1315v51h160l230 8l10 -8q-68 -78 -68 -248v-360h39q37 23 70 55l399 397q26 21 26 46q0 8 -3 17q-12 34 -80 42v51h383l10 -29q-111 -25 -264 -178l-387 -385v-20l495 -570q66 -76 94.5 -94t79.5 -22l23 -2l-8 -66h-301l-6 6q-20 61 -154 217l-383 445h-33v-482 l-10 -104l184 -19l-8 -57l-493 -12v65q68 8 107.5 42t39.5 85v979q0 80 -21.5 103.5t-130.5 46.5z" />
<glyph unicode="L" horiz-adv-x="1155" d="M100 1315v51h160l229 8l11 -8q-68 -78 -68 -248v-925l-10 -113h342q125 0 177 54t134 241h70l-84 -375h-660l-286 -6v65q137 14 137 127v979q0 80 -21.5 103.5t-130.5 46.5z" />
<glyph unicode="M" horiz-adv-x="1843" d="M90 -6v65q141 16 148 127l38 979q1 10 1 19q0 60 -24 83q-28 26 -142 48v51h163l226 8l8 -8q27 -106 59 -188l314 -803q20 -49 39 -117l397 967l45 141h53l221 8l11 -8q-8 -10 -19.5 -28.5t-30.5 -85.5q-17 -60 -16 -129v-15l39 -928l-6 -104l180 -13l-8 -57l-490 -12v65 q70 8 110 39t38 82l-45 1010l-492 -1190l-63 25l-473 1163q-4 -41 -6 -80l-37 -922l-15 -110l189 -13l-8 -57z" />
<glyph unicode="N" horiz-adv-x="1568" d="M92 1315v51h62l204 8q25 -47 76 -106l742 -856q47 -59 81 -109v852q0 41 -3 60.5t-18 42t-50 34t-96 17.5v57h389l10 -29l-15 -5q-9 -3 -34 -19.5t-43.5 -37t-33.5 -60t-15 -87.5v-1138h-54l-870 1028q-37 43 -74 98v-930l-10 -110l184 -13l-8 -57l-403 -12v65 q147 16 147 127v922q0 106 -34 147.5t-134 59.5z" />
<glyph unicode="O" horiz-adv-x="1628" d="M92 666q0 188 84 351t257 268.5t403 105.5q315 0 507.5 -187.5t192.5 -472.5q0 -197 -92 -369t-266 -279.5t-394 -107.5q-307 0 -499.5 201t-192.5 490zM295 719q0 -158 60.5 -306.5t185.5 -252t284 -103.5q154 0 273 94.5t177 234.5t58 294q0 248 -145.5 438.5 t-386.5 190.5q-229 0 -367.5 -175t-138.5 -415z" />
<glyph unicode="P" horiz-adv-x="1150" d="M90 1315v51h508q96 0 179 -17.5t159 -57.5t120 -116.5t44 -185.5q0 -117 -51.5 -206t-132 -135t-170.5 -64q-62 -13 -122 -13q-27 0 -55 2v58q168 4 249 93t81 222q0 174 -115.5 257t-294.5 83h-30l-21 -20v-1080l-10 -104l195 -19l-9 -57l-503 -12v65q68 8 107.5 42 t39.5 85v979q0 76 -26.5 101.5t-141.5 48.5z" />
<glyph unicode="Q" horiz-adv-x="1628" d="M92 666q0 188 84 351t257 268.5t403 105.5q315 0 507.5 -187.5t192.5 -472.5q0 -246 -145.5 -449.5t-386.5 -275.5q37 -31 103 -103l117 -125q50 -52 133 -96t169 -44q39 0 78 8v-54q-104 -59 -222 -59q-55 0 -112.5 19.5t-96 42t-87 66.5t-70 67.5t-62.5 72.5l-45 54 q-35 41 -60.5 64.5t-53 35.5t-43 16t-56.5 10.5l-65 10.5q-246 49 -392.5 237.5t-146.5 436.5zM295 719q0 -158 60.5 -306.5t185.5 -252t284 -103.5q154 0 273 94.5t177 234.5t58 294q0 248 -145.5 438.5t-386.5 190.5q-229 0 -367.5 -175t-138.5 -415z" />
<glyph unicode="R" horiz-adv-x="1286" d="M90 1315v51h475q260 0 384 -92t124 -238q0 -127 -85 -225t-185 -149v-27l295 -432q41 -59 75.5 -90t54 -37t52.5 -8l23 -2l-9 -66h-297l-8 6q-43 102 -127 225l-254 375h-149l-21 -20v-400l-10 -104l184 -19l-8 -57l-493 -12v65q68 8 107.5 42t39.5 85v979 q0 76 -26.5 101.5t-141.5 48.5zM438 686h172q102 0 183 79t81 218q0 131 -81.5 217t-257.5 86h-76l-21 -20v-580z" />
<glyph unicode="S" horiz-adv-x="1036" d="M90 186q0 33 47 183h70q0 -170 86 -243t211 -73q111 0 185.5 52.5t74.5 162.5q0 72 -36 132.5t-92 103.5t-125 84l-136 84q-68 43 -124 91t-92 117.5t-36 153.5q0 158 118.5 257.5t338.5 99.5q51 0 108 -5.5t97 -11.5t82 -13t51 -9l-64 -320h-70q3 26 4 50q0 88 -48 151 q-60 80 -185 80q-111 0 -182.5 -53.5t-71.5 -159.5q0 -72 36 -131.5t92 -100.5t125 -80l136 -80q68 -42 124 -90.5t92 -120t36 -161.5q0 -176 -130 -268.5t-327 -92.5q-154 0 -274.5 54.5t-120.5 156.5z" />
<glyph unicode="T" horiz-adv-x="1320" d="M12 1032l64 346q53 -12 137 -12h958q84 0 148 12l-64 -346h-69q1 22 1 41q0 118 -42 162q-49 51 -176 51h-203l-21 -20v-1073l-10 -111l205 -19l-8 -57l-514 -12v65q70 8 108.5 43t38.5 91v1093h-203q-109 0 -166 -50t-114 -204h-70z" />
<glyph unicode="U" horiz-adv-x="1505" d="M51 1315v51h160l229 8l11 -8q-68 -78 -68 -248v-620q0 -211 120 -320.5t287.5 -109.5t293.5 110.5t126 304.5v672q0 41 -3 60.5t-18 42t-50 34t-95 17.5v57h398l10 -29l-15 -5q-9 -3 -34 -19.5t-43.5 -37t-33.5 -60t-15 -87.5v-639q0 -242 -162 -378t-404 -136 q-106 0 -199 28t-172 84t-125 157.5t-46 236.5v684q0 80 -21.5 103.5t-130.5 46.5z" />
<glyph unicode="V" horiz-adv-x="1257" d="M-8 1315v51h125l211 8l8 -8q-26 -58 -26 -112q0 -39 14 -76l301 -809q27 -78 39 -127l368 895q16 39 16 69q0 24 -10 43q-23 43 -104 66v51h313l8 -29q-59 -41 -133 -219l-471 -1136l-67 24l-471 1196q-16 39 -46 67.5t-53 37.5z" />
<glyph unicode="W" horiz-adv-x="1968" d="M-12 1315v51h125l211 8l8 -8q-26 -58 -26 -112q0 -39 13 -76l295 -791q16 -43 39 -131l271 852l-35 94q-16 39 -46 67.5t-52 37.5l-23 8v51h125l211 8l8 -8q-26 -58 -26 -112q0 -39 14 -76l289 -795q18 -57 36 -125l279 879q13 37 13 66q0 27 -11 47q-23 42 -100 65v51 h311l8 -29q-8 -4 -21.5 -15t-49 -66.5t-62.5 -137.5l-360 -1136l-80 24l-377 973l-316 -997l-79 24l-471 1196q-16 39 -46 67.5t-53 37.5z" />
<glyph unicode="X" horiz-adv-x="1275" d="M18 0v59q115 10 168 84l369 527l-375 555q-23 33 -57.5 55.5t-56.5 28.5l-23 6v51h127l203 8l8 -8q-12 -32 -13 -63q0 -45 27 -84l279 -418l268 391q19 24 19 47q0 14 -7 28q-18 36 -92 48v51h348l11 -33q-74 -16 -152 -121l-344 -491l440 -647l105 -17l-8 -57h-93 l-325 -8v65q63 8 76.5 24.5t-13.5 57.5l-299 449l-350 -500l188 -25l-8 -63h-420z" />
<glyph unicode="Y" horiz-adv-x="1198" d="M8 1315v51h98l209 8l9 -8q-18 -37 -19 -72q0 -39 23 -75l254 -410q23 -35 59 -115l305 494q17 24 18 47q0 15 -8 30q-18 38 -92 50v51h334l8 -29q-80 -27 -141 -125l-375 -604v-422l-10 -104l184 -19l-8 -57l-494 -12v65q68 8 108 42t40 85v418l-393 621 q-23 35 -49.5 57.5t-42.5 28.5z" />
<glyph unicode="Z" horiz-adv-x="1249" d="M57 66q43 45 113 145l684 975q39 53 80 100h-451q-127 0 -185 -48t-116 -206h-69l51 334h840l131 8l8 -74l-103 -145l-678 -975q-33 -47 -81 -100h516q125 0 177 54t134 241h70l-84 -375h-893l-131 -8z" />
<glyph unicode="[" horiz-adv-x="589" d="M174 -317v1683h375v-92h-242v-1499h242v-92h-375z" />
<glyph unicode="\" horiz-adv-x="720" d="M-39 1366h131l682 -1767h-133z" />
<glyph unicode="]" horiz-adv-x="589" d="M41 -225h242v1499h-242v92h375v-1683h-375v92z" />
<glyph unicode="^" horiz-adv-x="1126" d="M74 512l438 879h102l439 -879h-135l-357 717l-356 -717h-131z" />
<glyph unicode="_" horiz-adv-x="1073" d="M25 -76h1024v-100h-1024v100z" />
<glyph unicode="`" horiz-adv-x="1024" d="M346 1382v56l178 -19l174 -350l-63 -35z" />
<glyph unicode="a" d="M57 182q0 135 135.5 219t321.5 113l70 10q2 41 2 78q0 84 -11 141q-25 131 -129 131q-61 0 -115.5 -49t-76.5 -98l-25 -49h-65l-35 153q16 12 48 32t130.5 51.5t200.5 31.5q141 0 192.5 -64.5t51.5 -228.5v-471q0 -53 11 -74.5t44 -21.5q25 0 53.5 10t44.5 21l15 10 l26 -43q-10 -12 -29.5 -30.5t-77 -48.5t-110.5 -30q-61 0 -100 37t-39 109v49q-4 -8 -13.5 -21.5t-39 -46t-63.5 -58.5t-89 -47.5t-115 -21.5q-98 0 -155.5 60.5t-57.5 146.5zM238 219q0 -59 32.5 -93t81.5 -34q86 0 232 123v242l-64 -11q-111 -18 -196.5 -73.5 t-85.5 -153.5z" />
<glyph unicode="b" horiz-adv-x="1062" d="M8 1366v55q104 23 187.5 46.5t111.5 35.5l31 10l6 -6q-20 -76 -20 -233v-328q0 -41 -2.5 -74.5t-4.5 -53t-2 -23.5q125 152 291 151q178 0 278.5 -132t100.5 -314q0 -213 -138 -369t-390 -156q-59 0 -171 12.5t-143 12.5l-6 6q18 90 19 205v1016q0 53 -3 77.5t-16.5 43 t-42.5 18.5h-86zM324 82q63 -29 149 -29q150 0 242 106.5t92 280.5q0 158 -74 272.5t-205 114.5q-61 0 -118.5 -24.5t-85.5 -50.5v-670z" />
<glyph unicode="c" horiz-adv-x="903" d="M78 442q0 201 118.5 352.5t319.5 151.5q113 0 218.5 -42t105.5 -113q0 -31 -21.5 -52.5t-56.5 -21.5t-64.5 24.5t-50 55t-58.5 55.5t-87 25q-119 0 -187.5 -110t-68.5 -265q0 -164 84 -276.5t254 -112.5q68 0 127 21.5t84 41.5l26 21l23 -43q-4 -8 -11.5 -19.5t-37 -42.5 t-64.5 -54.5t-94 -43t-125 -19.5q-203 0 -318.5 138.5t-115.5 328.5z" />
<glyph unicode="d" horiz-adv-x="1103" d="M76 420q0 211 138 368.5t386 157.5l145 -12v293q0 53 -3 77.5t-16 43t-42 18.5h-86v55q104 23 187 46.5t112 35.5l31 10l6 -6q-20 -76 -21 -233v-1079q0 -80 27 -98.5t88 -18.5h57l-6 -55l-327 -39l-7 6q8 57 9 108v43q-113 -166 -293 -166q-178 0 -281.5 132.5 t-103.5 312.5zM254 481q0 -158 73.5 -272.5t204.5 -114.5q123 0 213 90v576q0 109 -147 108q-158 0 -251 -104.5t-93 -282.5z" />
<glyph unicode="e" d="M78 442q0 211 124 357.5t308 146.5q141 0 246.5 -90t109.5 -250q-53 -20 -94 -26l-510 -74l-20 -25q6 -156 89 -262t242 -106q156 0 263 94l4 4l22 -43q-4 -8 -13 -20.5t-40 -46t-67.5 -59.5t-99 -46.5t-130.5 -20.5q-207 0 -320.5 137t-113.5 330zM246 580l430 55 q0 10 -2 25.5t-15.5 55.5t-32 70.5t-57.5 56t-90 25.5q-98 0 -158.5 -81.5t-74.5 -206.5z" />
<glyph unicode="f" horiz-adv-x="669" d="M74 817v62l129 45v55q0 233 110.5 372.5t307.5 139.5q84 0 151.5 -30.5t67.5 -90.5q0 -31 -23.5 -54.5t-62.5 -23.5q-33 0 -101.5 52.5t-128.5 52.5q-80 0 -116.5 -84t-36.5 -279v-112h288l-16 -99h-252l-20 -20v-617l-11 -110l215 -19l-8 -51l-491 -12v59 q127 14 127 133v631h-129z" />
<glyph unicode="g" horiz-adv-x="989" d="M49 -238q0 45 19.5 84t43 63.5t66.5 49.5t64.5 34t64.5 25q-170 43 -170 132q0 25 11.5 46t37 39.5t43 28.5t54 27.5t47.5 23.5q-111 31 -178.5 108t-67.5 193q0 154 111.5 242t271.5 88q61 0 141 -20.5t129 -20.5h99q29 0 62.5 6.5t51.5 14.5l21 6l-19 -133h-108l-72 6 q10 -8 23.5 -23.5t37 -67.5t23.5 -110q0 -139 -114.5 -223t-274.5 -84q-57 0 -100 8q-51 -59 -52 -86q0 -8 4.5 -16t13.5 -15.5t19 -12.5t29 -10l34 -9l40 -11q25 -6 43 -9t49 -9l51 -10q102 -20 172 -45t127 -80t57 -133q0 -145 -160.5 -244.5t-359.5 -99.5 q-154 0 -269.5 63t-115.5 184zM211 -213q0 -90 74.5 -142.5t183.5 -52.5q119 0 217 58.5t98 148.5q0 72 -67.5 110t-188.5 64q-27 6 -85 17.5l-87 17.5q-145 -96 -145 -221zM262 620.5q0 -106.5 52.5 -179t158.5 -72.5q104 0 154.5 67.5t50.5 167.5q0 109 -55.5 189.5 t-159.5 80.5q-100 0 -150.5 -73.5t-50.5 -180z" />
<glyph unicode="h" horiz-adv-x="1150" d="M37 1366v55q104 23 187 46.5t112 35.5l31 10l6 -6q-20 -76 -21 -233v-397q0 -41 -2 -75t-4 -53.5t-2 -23.5q63 90 166.5 155.5t222.5 65.5q233 0 234 -276v-484l-11 -110l174 -19l-8 -51l-440 -12v59q117 14 117 133v439q0 109 -37 152.5t-105 43.5q-70 0 -154.5 -39 t-150.5 -100v-496l-10 -110l164 -19l-8 -51l-441 -12v59q127 14 127 133v1041q0 53 -3 77.5t-16 43t-42 18.5h-86z" />
<glyph unicode="i" horiz-adv-x="567" d="M51 823v56q133 31 218 55t104 33l20 8l2 -6q-23 -68 -22 -234v-549l-11 -110l175 -19l-9 -51l-450 -12v59q127 14 127 133v498q0 53 -3 77.5t-16.5 43t-42.5 18.5h-92zM160 1266q0 45 32.5 77.5t77.5 32.5t78 -32.5t33 -77.5t-33 -78t-78 -33t-77.5 33t-32.5 78z" />
<glyph unicode="j" horiz-adv-x="514" d="M-29 -436q86 12 151.5 123.5t65.5 263.5v733q0 53 -3 77.5t-16 43t-42 18.5h-92v56q131 31 217 55t104 33l21 8l2 -6q-23 -59 -23 -226v-686q0 -258 -94 -400t-266 -142zM143 1266q0 45 33 77.5t78 32.5t78 -32.5t33 -77.5t-33 -78t-78 -33t-78 33t-33 78z" />
<glyph unicode="k" horiz-adv-x="1058" d="M37 1366v55q104 23 187 46.5t112 35.5l31 10l6 -6q-20 -76 -21 -233v-727h25l207 174q4 4 14 12t15 13.5t14.5 13.5t14.5 14t10 14.5t7.5 15.5t2.5 15q0 33 -68 51v52h375l10 -33q-119 -31 -215 -113l-238 -203v-20q18 -27 33 -41l303 -328q70 -76 99.5 -96t85.5 -25 l22 -2l-8 -61l-295 -6q-27 74 -84 141l-305 344h-25v-293l-10 -110l164 -19l-8 -51l-441 -12v59q127 14 127 133v1041q0 53 -3 77.5t-16 43t-42 18.5h-86z" />
<glyph unicode="l" horiz-adv-x="546" d="M37 1366v55q104 23 187 46.5t112 35.5l31 10l6 -6q-20 -76 -21 -233v-1088l-10 -110l174 -19l-8 -51l-451 -12v59q127 14 127 133v1041q0 53 -3 77.5t-16 43t-42 18.5h-86z" />
<glyph unicode="m" horiz-adv-x="1728" d="M53 823v56q201 41 328 96l6 -6q-18 -66 -25 -248q66 94 161 159.5t210 65.5q102 0 158.5 -58.5t56.5 -176.5q63 100 161.5 167.5t213.5 67.5q219 0 219 -276v-484l-10 -110l174 -19l-8 -51l-441 -12v59q117 12 117 133v439q0 111 -28.5 153.5t-90.5 42.5 q-84 0 -192.5 -61.5t-108.5 -141.5v-432l-10 -110l164 -19l-8 -51l-430 -12v59q117 12 116 133v439q0 111 -29.5 153.5t-90.5 42.5q-152 0 -295 -143v-492l-11 -110l164 -19l-8 -51l-440 -12v59q127 14 127 133v498q0 53 -3 77.5t-16.5 43t-42.5 18.5h-88z" />
<glyph unicode="n" horiz-adv-x="1171" d="M51 823v56q201 41 328 96l6 -6q-18 -68 -20 -250q61 94 165.5 160.5t223.5 66.5q233 0 233 -276v-484l-10 -108l174 -21l-8 -51l-441 -12v59q117 12 117 133v439q0 109 -37 152.5t-104 43.5q-72 0 -157 -39t-148 -104v-492l-11 -108l164 -21l-8 -51l-440 -12v59 q127 14 127 133v498q0 53 -3 77.5t-16.5 43t-42.5 18.5h-92z" />
<glyph unicode="o" horiz-adv-x="1089" d="M78 440q0 94 27.5 181.5t82 161t150.5 118.5t221 45q217 0 335 -126t118 -322q0 -133 -51.5 -249t-165 -195t-269.5 -79q-211 0 -329.5 131t-118.5 334zM266 487q0 -174 74 -308t215 -134q127 0 197.5 111.5t70.5 283.5q0 109 -27.5 204t-95 164t-165.5 69 q-133 0 -201 -114t-68 -276z" />
<glyph unicode="p" horiz-adv-x="1093" d="M41 823v56q201 41 321 96l7 -6q-12 -51 -21 -183q37 47 66.5 75t91 56.5t137.5 28.5q176 0 274.5 -132t98.5 -314q0 -213 -136.5 -369t-390.5 -156q-59 0 -137 13v-236l-10 -117h215l-8 -49q-324 -39 -471 -88v60q66 37 86 76.5t20 115.5v934q0 53 -3 77.5t-16 43 t-42 18.5h-82zM352 164q0 -111 148 -111q158 0 248 105.5t90 281.5q0 160 -70 273.5t-199 113.5q-106 0 -217 -86v-577z" />
<glyph unicode="q" horiz-adv-x="1062" d="M76 420q0 213 144.5 369.5t393.5 156.5q55 0 162 -12t148 -12l6 -7q-18 -76 -19 -204v-967l-10 -115h154l-8 -49q-115 -14 -222.5 -35.5t-156.5 -36.5l-52 -14v60q70 39 98.5 83t28.5 113v225q0 41 2.5 75t4.5 53.5t2 23.5q-115 -152 -291 -152t-280.5 133.5 t-104.5 311.5zM254 477q0 -156 76 -269.5t205 -113.5q117 0 208 76v670q-66 29 -149 28q-145 0 -242.5 -108.5t-97.5 -282.5z" />
<glyph unicode="r" horiz-adv-x="768" d="M51 823v56q90 18 173 41.5t120 37.5l39 17l6 -6q-18 -68 -24 -260q51 96 126.5 166.5t149.5 70.5q43 0 77 -23.5t34 -70.5q0 -45 -28 -72.5t-69 -27.5q-25 0 -51 17t-49 17q-78 0 -182 -118v-482l-11 -110l195 -19l-8 -51l-471 -12v59q127 14 127 133v498q0 53 -3 77.5 t-16.5 43t-42.5 18.5h-92z" />
<glyph unicode="s" horiz-adv-x="790" d="M80 115q0 41 26 155h62q8 -119 75.5 -172t155.5 -53q76 0 123 38t47 101q0 59 -48 106.5t-116.5 81.5l-138 71.5t-118 99t-48.5 143.5q0 117 87 188.5t247 71.5q55 0 118.5 -9t100.5 -19l37 -9l-41 -211h-63q0 59 -21.5 98.5t-56.5 54.5t-58.5 20.5t-48.5 5.5 q-78 0 -115.5 -39t-37.5 -93q0 -59 48 -103t116.5 -75.5t137 -67.5t117 -100.5t48.5 -154.5q0 -125 -90 -197t-238 -72q-106 0 -206.5 32t-100.5 108z" />
<glyph unicode="t" horiz-adv-x="710" d="M49 817v62q90 18 139 63l76 223l92 -2l6 -6q-18 -59 -18 -205v-30h320l-15 -99h-282l-21 -20v-520q0 -94 33 -139.5t110 -45.5q41 0 87.5 10.5t70.5 22.5l27 10l26 -39q-4 -6 -13 -14t-39 -29.5t-61.5 -39t-81.5 -31t-99 -13.5q-227 0 -228 269v440l6 133h-135z" />
<glyph unicode="u" horiz-adv-x="1144" d="M43 823v58q199 35 311 75l8 -6q-18 -57 -18 -215v-438q0 -111 36 -154t103 -43q72 0 152 39t145 107v438q0 53 -3 77.5t-16 43t-42 18.5h-68v58q197 35 307 75l9 -6q-18 -57 -19 -215v-540q0 -80 25.5 -98.5t89.5 -18.5h57l-6 -55q-223 -23 -336 -41l-8 6q18 59 18 110 v107q-63 -94 -162.5 -162t-217.5 -68q-231 0 -232 275v434q0 53 -3 77.5t-16.5 43t-41.5 18.5h-72z" />
<glyph unicode="v" horiz-adv-x="935" d="M4 870v52h94l205 8l8 -8q-20 -45 -20 -94q0 -46 18 -95l156 -432q16 -49 37 -127l241 547q12 28 12 51q0 71 -114 98v52h277l10 -33q-31 -12 -74 -107l-358 -809l-86 27l-293 752q-41 95 -113 118z" />
<glyph unicode="w" horiz-adv-x="1495" d="M4 870v52h94l201 8l8 -8q-4 -10 -8 -26.5t-9 -69.5q-1 -10 -1 -20q0 -40 16 -73l160 -432l33 -111l190 453q15 39 16 69q0 14 -4 25l-4 15q-39 96 -112 118v52h94l201 8l8 -8q-4 -10 -8.5 -26.5t-9.5 -69.5q-1 -10 -1 -20q0 -40 17 -73l157 -424l35 -116l223 530 q11 25 11 47q0 27 -17 48q-31 38 -96 52v52h275l10 -33q-35 -16 -74 -109l-344 -807l-76 27l-235 602l-269 -629l-75 27l-293 752q-41 95 -113 118z" />
<glyph unicode="x" horiz-adv-x="1001" d="M33 -6v59q78 8 141 82l252 316l-219 311q-68 96 -154 108v52h99l210 8l9 -8q-8 -22 -8 -45q0 -49 36 -103l138 -203l159 203q16 22 16 39q0 43 -100 57v52h322l10 -33q-70 -12 -141 -103l-223 -280l311 -443l92 -8l-8 -49l-395 -12v63q66 0 79 18.5t-16 57.5l-174 252 l-244 -309l156 -19l-8 -51z" />
<glyph unicode="y" horiz-adv-x="944" d="M2 870v52h96l209 8l8 -8q-18 -37 -18 -92.5t16 -96.5l166 -416q23 -63 39 -122l232 528q10 23 10 43q0 71 -123 104v52h285l10 -33q-37 -20 -74 -109l-354 -805q-2 -6 -32 -73l-46 -103q-16 -35 -53 -98t-68 -97t-77 -61.5t-93 -27.5q-43 0 -66.5 24.5t-23.5 61.5 q0 35 24.5 59.5t75.5 24.5q150 0 217 153l66 154q-31 88 -49 133l-262 627q-43 95 -115 118z" />
<glyph unicode="z" horiz-adv-x="899" d="M66 45q23 20 73 98l398 613q20 31 73 98h-272q-82 0 -130 -55.5t-67 -118.5h-59l37 242h538l140 8l16 -53q-8 -4 -70 -99l-387 -606q-23 -35 -75 -102h249q55 0 101.5 21.5t71 51t42 59t23.5 52.5l6 20h60l-56 -274h-557l-139 -8z" />
<glyph unicode="{" horiz-adv-x="712" d="M14 502v71q53 2 96.5 26t70 54.5t46 88t28.5 99.5t14 113.5t5 105.5v101v29q0 166 114 247t304 81l10 -74q-180 -12 -230 -86t-50 -277q0 -453 -227 -540v-4q94 -37 160.5 -171.5t66.5 -392.5q0 -203 50 -275.5t230 -86.5l-10 -74q-418 0 -418 328v29v103q0 38 -5 109.5 t-14 116.5t-28.5 103.5t-46 91.5t-70 57.5t-96.5 26.5z" />
<glyph unicode="|" horiz-adv-x="477" d="M172 -461v1995h133v-1995h-133z" />
<glyph unicode="}" horiz-adv-x="712" d="M10 -389q180 14 230.5 87t50.5 275q0 258 66.5 392.5t160.5 171.5v4q-227 88 -227 540q0 203 -50.5 277t-230.5 86l10 74q190 0 304 -81t114 -247v-29v-102q0 -37 5.5 -106.5t14.5 -112.5t28.5 -98.5t46 -88t69.5 -55.5t96 -25v-71q-53 -2 -96 -26.5t-69.5 -57.5 t-46 -92.5t-28.5 -102.5t-14.5 -116.5t-5.5 -109.5v-103v-29q0 -328 -418 -328z" />
<glyph unicode="~" horiz-adv-x="1206" d="M135 358q0 162 69.5 240t190.5 78q66 0 117 -21.5t84 -53.5t62.5 -63.5t65.5 -53t79 -21.5q82 0 113.5 63.5t31.5 141.5h121q0 -162 -69.5 -240t-190.5 -78q-80 0 -141.5 34t-92 73t-76.5 72.5t-98 33.5q-82 0 -113.5 -63.5t-31.5 -141.5h-121z" />
<glyph unicode="&#xa1;" horiz-adv-x="559" d="M154 -489q23 66 34 221l68 829h51l90 -983q-182 -49 -237 -74zM162 823q0 51 35.5 87t87 36t87.5 -36t36 -87t-36 -87t-87.5 -36t-87 36t-35.5 87z" />
<glyph unicode="&#xa2;" horiz-adv-x="884" d="M78 561q0 168 101.5 296t283.5 140l10 185h82l-10 -185q100 -10 184 -50t84 -99q0 -78 -80 -78q-43 0 -100.5 64.5t-91.5 80.5l-31 -628q41 -4 63 -4q133 0 238 90l23 -43q-4 -8 -12.5 -20.5t-37 -44.5t-63.5 -56.5t-94.5 -45t-124.5 -22.5l-8 -186h-82l8 190 q-166 23 -254 141.5t-88 274.5zM246 629q0 -102 46 -189.5t136 -128.5l33 617q-98 -8 -156.5 -96t-58.5 -203z" />
<glyph unicode="&#xa3;" horiz-adv-x="1042" d="M84 59q4 2 11 6.5t26.5 19.5t35 34.5t31 53.5t19.5 71l31 256h-127v82h137l22 180q49 395 377 395q92 0 166 -28.5t74 -86.5q0 -37 -23.5 -60.5t-60.5 -23.5q-39 0 -100.5 56.5t-118.5 56.5q-76 0 -105.5 -63.5t-46.5 -251.5l-18 -174h379l-11 -82h-376v-8 q-8 -90 -27 -173t-35 -122l-14 -37q162 -72 321 -72q231 0 269 172l14 66h63q-8 -78 -24.5 -137.5t-50 -118t-97 -90t-151.5 -31.5q-63 0 -158 22l-172 43q-68 14 -90 15q-70 0 -145 -29z" />
<glyph unicode="&#xa5;" horiz-adv-x="1046" d="M59 1081v52h82l189 6l6 -6q-27 -59 4 -111l166 -272q27 -47 57 -113l215 346q51 82 -65 98v52h262l8 -33q-43 -6 -92 -84l-244 -381h268v-82h-307v-139h307v-82h-307v-146l-10 -110l174 -19l-8 -51l-451 -12v59q127 14 127 133v146h-295v82h295v139h-295v82h244l-239 379 q-38 59 -91 67z" />
<glyph unicode="&#xa6;" horiz-adv-x="516" d="M184 354h148v-733h-148v733zM184 672v733h148v-733h-148z" />
<glyph unicode="&#xa7;" horiz-adv-x="958" d="M35 -354l33 55q8 -8 27.5 -21.5t86 -35t144.5 -21.5q174 0 239.5 132t32.5 323l-106 586l-14 78q-5 30 -11 89.5t-1 99.5t16.5 87t41 79.5t72.5 49.5l10 -10q-43 -125 -8 -316l129 -727q27 -147 -1 -276t-121 -216t-238 -87q-92 0 -175 32.5t-120 65.5zM180 811 q-27 147 1 276.5t121 216.5t239 87q92 0 175 -33t120 -66l36 -32l-32 -56q-8 8 -27.5 21.5t-86.5 35t-144 21.5q-174 0 -240 -132t-33 -323l107 -585l13 -79q5 -30 11 -89.5t1 -99.5t-16 -87t-41 -79.5t-73 -49.5l-10 11q43 125 8 315z" />
<glyph unicode="&#xa8;" horiz-adv-x="1024" d="M215 1266q0 45 33 77.5t78 32.5t77.5 -32.5t32.5 -77.5t-32.5 -78t-77.5 -33t-78 33t-33 78zM586 1266q0 45 32.5 77.5t77.5 32.5t78 -32.5t33 -77.5t-33 -78t-78 -33t-77.5 33t-32.5 78z" />
<glyph unicode="&#xa9;" horiz-adv-x="1556" d="M72 682q0 293 207.5 500t498.5 207t499 -207t208 -500t-208 -500t-499 -207t-498.5 207t-207.5 500zM166 682q0 -258 177 -440.5t435 -182.5t435.5 182.5t177.5 440.5t-177.5 440.5t-435.5 182.5t-435 -182.5t-177 -440.5zM373 674q0 172 114.5 304t323.5 132 q47 0 96 -10t98.5 -25.5t63.5 -19.5l-35 -217h-63q0 201 -191 200q-111 0 -180.5 -92t-69.5 -223q0 -160 87.5 -254t220.5 -94q61 0 121.5 25.5t89.5 50.5l30 24l23 -59q-43 -63 -134 -103.5t-169 -40.5q-174 0 -300 111t-126 291z" />
<glyph unicode="&#xaa;" horiz-adv-x="794" d="M90 858q0 98 102.5 160.5t253.5 79.5v59q0 178 -79 178q-76 0 -140 -131l-6 -12h-57l-25 117q106 82 271 82q104 0 141 -45.5t37 -161.5v-326q0 -63 26 -63q31 0 80 36l27 -38q-74 -82 -160 -82q-109 0 -108 120q-8 -14 -25.5 -33.5t-70 -53t-105.5 -33.5q-76 0 -119 42 t-43 105zM240 885q0 -41 17 -63.5t46 -22.5q63 0 143 82v161q-86 -10 -146 -50.5t-60 -106.5z" />
<glyph unicode="&#xab;" horiz-adv-x="1062" d="M76 510v8q63 45 436 428l59 -20l-268 -412l268 -412l-59 -20q-368 379 -436 428zM475 510v8q63 45 436 428l60 -20l-269 -412l269 -412l-60 -20q-368 379 -436 428z" />
<glyph unicode="&#xac;" horiz-adv-x="1064" d="M49 684v113h918v-570h-121v457h-797z" />
<glyph unicode="&#xad;" horiz-adv-x="737" d="M127 444v136h483v-136h-483z" />
<glyph unicode="&#xae;" horiz-adv-x="856" d="M74 1087.5q0 145.5 104.5 250t249.5 104.5t249.5 -104.5t104.5 -250t-104.5 -250t-249.5 -104.5t-249.5 104.5t-104.5 250zM143 1087.5q0 -120.5 84 -207.5t201 -87q115 0 200 88t85 206.5t-85 205.5t-200 87q-119 0 -202 -86t-83 -206.5zM258 1241v25h152q147 0 147 -86 q0 -47 -68 -90q10 -18 29 -48l45 -65q20 -29 53 -33l-2 -29l-108 -2q-10 27 -33 62l-55 82h-35v-82l-4 -25l51 -6l-2 -26l-164 -5v31q37 4 37 31v227q0 18 -7 24.5t-36 14.5zM383 1092h45q12 2 27.5 20t15.5 51q0 68 -70 68h-18v-139z" />
<glyph unicode="&#xaf;" horiz-adv-x="1024" d="M279 1206v121h466v-121h-466z" />
<glyph unicode="&#xb0;" horiz-adv-x="659" d="M80 1144.5q0 102.5 72.5 174.5t177 72t177.5 -72t73 -174.5t-73 -174t-177.5 -71.5t-177 71.5t-72.5 174zM182 1144.5q0 -63.5 43 -107.5t104.5 -44t104.5 44t43 107.5t-43 107.5t-104.5 44t-104.5 -44t-43 -107.5z" />
<glyph unicode="&#xb1;" horiz-adv-x="1064" d="M74 0v113h917v-113h-917zM74 651v113h401v379h121v-379h395v-113h-395v-405h-121v405h-401z" />
<glyph unicode="&#xb2;" horiz-adv-x="677" d="M43 823q227 205 297 318q76 119 76 221q0 66 -39 99.5t-96 33.5q-106 0 -187 -70l-39 43q4 6 12.5 15.5t36 34t57 44t76 35t93.5 15.5q96 0 167.5 -53.5t71.5 -151.5q0 -76 -57 -172t-112 -155l-158 -162l-33 -33h235q57 0 80 24.5t41 85.5h58l-35 -225h-529z" />
<glyph unicode="&#xb3;" horiz-adv-x="655" d="M41 854q0 49 59 49q39 0 87.5 -48t95.5 -48q55 0 100 61.5t45 130.5q0 72 -52 118t-143 46l-53 -4v72q84 6 142.5 59t58.5 121q0 96 -100 96q-86 0 -158 -49l-39 43q10 12 29.5 30.5t84 49.5t134.5 31q82 0 144.5 -43t62.5 -127q0 -57 -60.5 -115.5t-136.5 -99.5 q111 -16 181.5 -74.5t70.5 -138.5q0 -109 -102.5 -183.5t-229.5 -74.5q-78 0 -149.5 25.5t-71.5 72.5z" />
<glyph unicode="&#xb4;" horiz-adv-x="1024" d="M326 1069l174 350l178 19v-56l-289 -348z" />
<glyph unicode="&#xb5;" horiz-adv-x="1105" d="M135 903l189 43l8 -6q-14 -57 -15 -215v-428q0 -197 129 -197q152 0 297 146v442q0 129 -14 215l189 43l8 -6q-14 -57 -15 -215v-530q0 -68 12.5 -92.5t61.5 -24.5h78l6 -49q-121 -53 -186 -54q-131 0 -131 123v107q-154 -229 -351 -230q-98 0 -163 66q6 -96 42.5 -241.5 t36.5 -182.5q0 -45 -24.5 -73.5t-59.5 -28.5q-53 0 -72.5 36.5t-19.5 110.5q0 29 4.5 102.5t4.5 118.5v805q-1 129 -15 215z" />
<glyph unicode="&#xb6;" horiz-adv-x="1316" d="M41 844q0 211 154.5 366.5t431.5 155.5h442q121 0 162 8l-19 -114h-151v-1260h-117v1260h-153v-1086q0 -256 -21 -338q-33 -137 -114 -229t-197 -92q-47 0 -72 26.5t-25 57.5q0 45 28 66.5t61 21.5q16 0 47.5 -8.5t46.5 -8.5q74 0 97.5 87t23.5 274v295h-29 q-291 0 -443.5 151.5t-152.5 366.5z" />
<glyph unicode="&#xb7;" horiz-adv-x="516" d="M135 520q0 51 36 87t87 36t87 -36t36 -87t-36 -87t-87 -36t-87 36t-36 87z" />
<glyph unicode="&#xb8;" horiz-adv-x="1024" d="M322 -412l30 66q70 -51 144 -51q47 0 76.5 20.5t29.5 52.5q0 23 -24.5 42.5t-54 31.5t-54.5 34.5t-25 49.5t19.5 68t40.5 69l20 29h64q-25 -63 -25 -92q0 -23 26.5 -41.5t59.5 -30.5t59.5 -43t26.5 -78q0 -78 -65.5 -139t-161.5 -61q-51 0 -97 18t-67 37z" />
<glyph unicode="&#xb9;" horiz-adv-x="548" d="M43 1522l342 98l6 -8q-16 -43 -16 -139v-574l-4 -61l161 -11l-6 -53l-463 -8v57l87 4q47 2 60 20.5t13 51.5v535q0 33 -5 46t-14 12t-24 -3l-129 -29z" />
<glyph unicode="&#xba;" horiz-adv-x="841" d="M86 1036q0 143 85 249t259 106q156 0 242 -88.5t86 -225.5q0 -147 -92.5 -256.5t-257.5 -109.5q-152 0 -237 92t-85 233zM240 1071q0 -119 48 -210t140 -91q82 0 127 77t45 189q0 119 -46 208t-140 89q-86 0 -130 -76.5t-44 -185.5z" />
<glyph unicode="&#xbb;" horiz-adv-x="1062" d="M92 102l268 412l-268 412l60 20q373 -383 436 -428v-8q-68 -49 -436 -428zM492 102l268 412l-268 412l59 20q373 -383 436 -428v-8q-68 -49 -436 -428z" />
<glyph unicode="&#xbc;" horiz-adv-x="1646" d="M68 1300l342 99l6 -8q-16 -43 -17 -140v-573l-4 -62l162 -10l-6 -53l-463 -8v57l86 4q47 2 60.5 20.5t13.5 51.5v534q0 33 -5 46.5t-14.5 12.5t-23.5 -3l-129 -29zM399 0l805 1397l96 -33l-784 -1364h-117zM944 305l395 516l117 23q-8 -55 -8 -144v-381h139l-22 -86h-117 v-110l-4 -62l110 -10l-4 -47l-344 -8v49q92 10 92 78v110h-342zM1038 319h260v330z" />
<glyph unicode="&#xbd;" horiz-adv-x="1765" d="M63 1300l343 99l6 -8q-16 -43 -17 -140v-573l-4 -62l162 -10l-6 -53l-463 -8v57l86 4q47 2 60.5 20.5t13.5 51.5v534q0 33 -5.5 46.5t-14.5 12.5t-23 -3l-129 -29zM397 0l805 1397l96 -33l-784 -1364h-117zM1122 53q227 205 297 318q76 119 76 221q0 66 -39 99.5 t-96 33.5q-106 0 -186 -70l-39 43q4 6 12 15.5t35.5 34t57.5 44t76 35t93 15.5q96 0 168 -53.5t72 -151.5q0 -76 -57.5 -172t-111.5 -155l-159 -163l-33 -32h236q57 0 79.5 24.5t41.5 85.5h57l-35 -225h-528z" />
<glyph unicode="&#xbe;" horiz-adv-x="1632" d="M63 633q0 49 60 49q39 0 87 -48t95 -48q55 0 100.5 61.5t45.5 130.5q0 72 -52.5 118t-142.5 46l-53 -4v72q84 6 142 59t58 121q0 96 -100 96q-86 0 -158 -49l-39 43q10 12 30 30.5t84.5 49.5t133.5 31q82 0 144.5 -43t62.5 -127q0 -57 -60.5 -115.5t-135.5 -99.5 q111 -16 181 -75t70 -138q0 -109 -102 -183.5t-229 -74.5q-78 0 -150 25.5t-72 72.5zM381 0l805 1397l96 -33l-784 -1364h-117zM926 305l395 516l117 23q-8 -55 -8 -144v-381h139l-23 -86h-116v-110l-5 -62l111 -10l-4 -47l-344 -8v49q92 10 92 78v110h-342zM1020 319h260 v330z" />
<glyph unicode="&#xbf;" horiz-adv-x="669" d="M23 -98q0 47 38.5 99t95 105.5t112 116t94 150.5t38.5 188h52q10 -45 10 -102q0 -94 -39 -179t-87 -136.5t-87 -104.5t-39 -92t40 -82t97.5 -77t115.5 -62.5t97 -44.5l41 -15l-33 -180l-59 22q-37 14 -131 59.5t-166 91.5t-131 113t-59 130zM297 823q0 51 36 87t87 36 t87 -36t36 -87t-36 -87t-87 -36t-87 36t-36 87z" />
<glyph unicode="&#xc0;" horiz-adv-x="1275" d="M-27 0v59q104 10 138 93l485 1208l84 18l455 -1163q39 -96 69.5 -124t85.5 -36l-8 -55h-88l-311 -6v69q51 2 76.5 19.5t9.5 60.5l-125 328h-490l-26 -20l-142 -369l174 -25l-8 -57h-379zM367 557h444l-176 467q-23 57 -41 125zM375 1606v51l67 106h11l362 -215l-27 -67z " />
<glyph unicode="&#xc1;" horiz-adv-x="1275" d="M-27 0v59q104 10 138 93l485 1208l84 18l455 -1163q39 -96 69.5 -124t85.5 -36l-8 -55h-88l-311 -6v69q51 2 76.5 19.5t9.5 60.5l-125 328h-490l-26 -20l-142 -369l174 -25l-8 -57h-379zM367 557h444l-176 467q-23 57 -41 125zM463 1548l362 215h11l67 -106v-51 l-414 -125z" />
<glyph unicode="&#xc2;" horiz-adv-x="1275" d="M-27 0v59q104 10 138 93l485 1208l84 18l455 -1163q39 -96 69.5 -124t85.5 -36l-8 -55h-88l-311 -6v69q51 2 76.5 19.5t9.5 60.5l-125 328h-490l-26 -20l-142 -369l174 -25l-8 -57h-379zM317 1518l269 266h108l267 -266l-56 -48l-262 166h-8l-262 -166zM367 557h444 l-176 467q-23 57 -41 125z" />
<glyph unicode="&#xc3;" horiz-adv-x="1275" d="M-27 0v59q104 10 138 93l485 1208l84 18l455 -1163q39 -96 69.5 -124t85.5 -36l-8 -55h-88l-311 -6v69q51 2 76.5 19.5t9.5 60.5l-125 328h-490l-26 -20l-142 -369l174 -25l-8 -57h-379zM276 1516q0 10 2.5 25t15.5 55t32.5 71t59.5 55.5t91 24.5q66 0 182.5 -60.5 t159.5 -60.5q41 0 70 31t37 59l6 31l72 -6q0 -10 -2.5 -26.5t-15.5 -57.5t-34.5 -73t-65.5 -57.5t-102 -25.5q-76 0 -179 60.5t-144 60.5q-76 0 -111 -109l-4 -12zM367 557h444l-176 467q-23 57 -41 125z" />
<glyph unicode="&#xc4;" horiz-adv-x="1275" d="M-27 0v59q104 10 138 93l485 1208l84 18l455 -1163q39 -96 69.5 -124t85.5 -36l-8 -55h-88l-311 -6v69q51 2 76.5 19.5t9.5 60.5l-125 328h-490l-26 -20l-142 -369l174 -25l-8 -57h-379zM291 1624q0 45 32.5 78t77.5 33t78 -33t33 -78t-33 -78t-78 -33t-77.5 33t-32.5 78 zM367 557h444l-176 467q-23 57 -41 125zM764 1624q0 45 32.5 78t78 33t78 -33t32.5 -78t-32.5 -78t-78 -33t-78 33t-32.5 78z" />
<glyph unicode="&#xc5;" horiz-adv-x="1275" d="M-27 0v59q104 10 138 93l485 1208l84 18l455 -1163q39 -96 69.5 -124t85.5 -36l-8 -55h-88l-311 -6v69q51 2 76.5 19.5t9.5 60.5l-125 328h-490l-26 -20l-142 -369l174 -25l-8 -57h-379zM367 557h444l-176 467q-23 57 -41 125zM446 1622q0 66 50.5 114t142.5 48t142 -48 t50 -114q0 -68 -50 -117t-142 -49t-142.5 49t-50.5 117zM543 1620q0 -39 24.5 -66.5t71.5 -27.5q45 0 71.5 28.5t26.5 65.5q0 39 -25.5 66.5t-72.5 27.5q-49 0 -72.5 -27.5t-23.5 -66.5z" />
<glyph unicode="&#xc6;" horiz-adv-x="1802" d="M-39 0v59q41 4 69.5 20.5t41 32t26.5 40.5l582 1046q27 43 6.5 69.5t-104.5 47.5v51h956l148 8l-64 -342h-70q8 152 -42 203t-179 51h-268l-21 -20v-553h379l17 137l75 12v-360h-96v131h-354l-21 -21v-417l-10 -115h322q127 0 175 43t128 211h69l-75 -334h-639l-297 -6 v65q147 16 147 127v447h-370l-31 -21l-293 -530l174 -25l-8 -57h-373zM516 713h346v561q-45 -18 -82 -86z" />
<glyph unicode="&#xc7;" horiz-adv-x="1390" d="M92 668q0 315 210 519t540 204q68 0 151.5 -9.5t169.5 -21.5l121 -17l-61 -311h-70q0 147 -101.5 214t-244.5 67q-233 0 -378.5 -167t-145.5 -419q0 -272 169 -444t422 -172q227 0 396 131l16 14l29 -43q-6 -10 -18.5 -25.5t-58.5 -56.5t-99.5 -72.5t-143.5 -57.5 t-190 -26h-29q-14 -47 -14 -67q0 -23 26.5 -41.5t59.5 -30.5t59.5 -43t26.5 -78q0 -78 -65.5 -139t-161.5 -61q-51 0 -97.5 18t-68.5 37l-21 18l31 66q70 -51 143 -51q47 0 77 20.5t30 52.5q0 23 -24.5 42.5t-54.5 31.5t-54.5 34.5t-24.5 49.5q0 51 66 148 q-260 31 -438.5 214t-178.5 472z" />
<glyph unicode="&#xc8;" horiz-adv-x="1198" d="M90 1315v51h844l147 8l-63 -342h-70q8 152 -42 203t-179 51h-268l-21 -20v-533h379l17 117l75 12v-360h-96v151h-354l-21 -20v-438l-10 -115h322q127 0 175 43t128 211h69l-75 -334h-639l-297 -6v65q147 16 147 127v979q0 76 -26.5 101.5t-141.5 48.5zM365 1606v51 l67 106h10l363 -215l-27 -67z" />
<glyph unicode="&#xc9;" horiz-adv-x="1198" d="M90 1315v51h844l147 8l-63 -342h-70q8 152 -42 203t-179 51h-268l-21 -20v-533h379l17 117l75 12v-360h-96v151h-354l-21 -20v-438l-10 -115h322q127 0 175 43t128 211h69l-75 -334h-639l-297 -6v65q147 16 147 127v979q0 76 -26.5 101.5t-141.5 48.5zM453 1548l362 215 h10l68 -106v-51l-414 -125z" />
<glyph unicode="&#xca;" horiz-adv-x="1198" d="M90 1315v51h844l147 8l-63 -342h-70q8 152 -42 203t-179 51h-268l-21 -20v-533h379l17 117l75 12v-360h-96v151h-354l-21 -20v-438l-10 -115h322q127 0 175 43t128 211h69l-75 -334h-639l-297 -6v65q147 16 147 127v979q0 76 -26.5 101.5t-141.5 48.5zM307 1518l268 266 h109l266 -266l-55 -48l-262 166h-8l-263 -166z" />
<glyph unicode="&#xcb;" horiz-adv-x="1198" d="M90 1315v51h844l147 8l-63 -342h-70q8 152 -42 203t-179 51h-268l-21 -20v-533h379l17 117l75 12v-360h-96v151h-354l-21 -20v-438l-10 -115h322q127 0 175 43t128 211h69l-75 -334h-639l-297 -6v65q147 16 147 127v979q0 76 -26.5 101.5t-141.5 48.5zM281 1624 q0 45 32.5 78t77.5 33t78 -33t33 -78t-33 -78t-78 -33t-77.5 33t-32.5 78zM754 1624q0 45 32.5 78t77.5 33t78 -33t33 -78t-33 -78t-78 -33t-77.5 33t-32.5 78z" />
<glyph unicode="&#xcc;" horiz-adv-x="677" d="M68 1606v51l67 106h10l363 -215l-27 -67zM104 1315v51h160l230 8l10 -8q-68 -78 -68 -248v-932l-10 -104l195 -19l-9 -57l-503 -12v65q68 8 107.5 42t39.5 85v979q0 80 -21.5 103.5t-130.5 46.5z" />
<glyph unicode="&#xcd;" horiz-adv-x="677" d="M104 1315v51h160l230 8l10 -8q-68 -78 -68 -248v-932l-10 -104l195 -19l-9 -57l-503 -12v65q68 8 107.5 42t39.5 85v979q0 80 -21.5 103.5t-130.5 46.5zM156 1548l362 215h10l68 -106v-51l-414 -125z" />
<glyph unicode="&#xce;" horiz-adv-x="677" d="M10 1518l269 266h108l266 -266l-55 -48l-262 166h-8l-262 -166zM104 1315v51h160l230 8l10 -8q-68 -78 -68 -248v-932l-10 -104l195 -19l-9 -57l-503 -12v65q68 8 107.5 42t39.5 85v979q0 80 -21.5 103.5t-130.5 46.5z" />
<glyph unicode="&#xcf;" horiz-adv-x="677" d="M35 1624q0 45 32.5 78t77.5 33t78 -33t33 -78t-33 -78t-78 -33t-77.5 33t-32.5 78zM104 1315v51h160l230 8l10 -8q-68 -78 -68 -248v-932l-10 -104l195 -19l-9 -57l-503 -12v65q68 8 107.5 42t39.5 85v979q0 80 -21.5 103.5t-130.5 46.5zM406 1624q0 45 32.5 78t77.5 33 t78 -33t33 -78t-33 -78t-78 -33t-77.5 33t-32.5 78z" />
<glyph unicode="&#xd0;" horiz-adv-x="1527" d="M72 651v86h186v428q0 76 -26.5 101.5t-141.5 48.5v51h561q158 0 291 -31.5t247 -102.5t178.5 -198t64.5 -301q0 -342 -234.5 -537.5t-624.5 -195.5h-165l-297 -6v65q147 16 147 127v465h-186zM428 80h145q340 0 498 166t158 440q0 276 -151.5 438t-434.5 162h-184 l-21 -20v-529h340v-86h-340v-456z" />
<glyph unicode="&#xd1;" horiz-adv-x="1568" d="M92 1315v51h62l204 8q25 -47 76 -106l742 -856q47 -59 81 -109v852q0 41 -3 60.5t-18 42t-50 34t-96 17.5v57h389l10 -29l-15 -5q-9 -3 -34 -19.5t-43.5 -37t-33.5 -60t-15 -87.5v-1138h-54l-870 1028q-37 43 -74 98v-930l-10 -110l184 -13l-8 -57l-403 -12v65 q147 16 147 127v922q0 106 -34 147.5t-134 59.5zM444 1516q0 10 2.5 25t15.5 55t32.5 71t59.5 55.5t91 24.5q66 0 182.5 -60.5t159.5 -60.5q41 0 69.5 31t37.5 59l6 31l71 -6q0 -10 -2 -26.5t-15 -57.5t-34.5 -73t-65.5 -57.5t-102 -25.5q-76 0 -179 60.5t-144 60.5 q-76 0 -111 -109l-4 -12z" />
<glyph unicode="&#xd2;" horiz-adv-x="1628" d="M92 666q0 188 84 351t257 268.5t403 105.5q315 0 507.5 -187.5t192.5 -472.5q0 -197 -92 -369t-266 -279.5t-394 -107.5q-307 0 -499.5 201t-192.5 490zM295 719q0 -158 60.5 -306.5t185.5 -252t284 -103.5q154 0 273 94.5t177 234.5t58 294q0 248 -145.5 438.5 t-386.5 190.5q-229 0 -367.5 -175t-138.5 -415zM545 1606v51l67 106h11l362 -215l-27 -67z" />
<glyph unicode="&#xd3;" horiz-adv-x="1628" d="M92 666q0 188 84 351t257 268.5t403 105.5q315 0 507.5 -187.5t192.5 -472.5q0 -197 -92 -369t-266 -279.5t-394 -107.5q-307 0 -499.5 201t-192.5 490zM295 719q0 -158 60.5 -306.5t185.5 -252t284 -103.5q154 0 273 94.5t177 234.5t58 294q0 248 -145.5 438.5 t-386.5 190.5q-229 0 -367.5 -175t-138.5 -415zM633 1548l362 215h11l67 -106v-51l-414 -125z" />
<glyph unicode="&#xd4;" horiz-adv-x="1628" d="M92 666q0 188 84 351t257 268.5t403 105.5q315 0 507.5 -187.5t192.5 -472.5q0 -197 -92 -369t-266 -279.5t-394 -107.5q-307 0 -499.5 201t-192.5 490zM295 719q0 -158 60.5 -306.5t185.5 -252t284 -103.5q154 0 273 94.5t177 234.5t58 294q0 248 -145.5 438.5 t-386.5 190.5q-229 0 -367.5 -175t-138.5 -415zM487 1518l269 266h108l266 -266l-55 -48l-262 166h-8l-262 -166z" />
<glyph unicode="&#xd5;" horiz-adv-x="1628" d="M92 666q0 188 84 351t257 268.5t403 105.5q315 0 507.5 -187.5t192.5 -472.5q0 -197 -92 -369t-266 -279.5t-394 -107.5q-307 0 -499.5 201t-192.5 490zM295 719q0 -158 60.5 -306.5t185.5 -252t284 -103.5q154 0 273 94.5t177 234.5t58 294q0 248 -145.5 438.5 t-386.5 190.5q-229 0 -367.5 -175t-138.5 -415zM446 1516q0 10 2.5 25t15.5 55t32.5 71t59.5 55.5t91 24.5q66 0 182.5 -60.5t159.5 -60.5q41 0 68.5 31t36.5 59l8 31l72 -6q0 -10 -2.5 -26.5t-15.5 -57.5t-34.5 -73t-65.5 -57.5t-102 -25.5q-76 0 -179 60.5t-144 60.5 q-76 0 -111 -109l-4 -12z" />
<glyph unicode="&#xd6;" horiz-adv-x="1628" d="M92 666q0 188 84 351t257 268.5t403 105.5q315 0 507.5 -187.5t192.5 -472.5q0 -197 -92 -369t-266 -279.5t-394 -107.5q-307 0 -499.5 201t-192.5 490zM295 719q0 -158 60.5 -306.5t185.5 -252t284 -103.5q154 0 273 94.5t177 234.5t58 294q0 248 -145.5 438.5 t-386.5 190.5q-229 0 -367.5 -175t-138.5 -415zM461 1624q0 45 32.5 78t77.5 33t78 -33t33 -78t-33 -78t-78 -33t-77.5 33t-32.5 78zM934 1624q0 45 32.5 78t78 33t78 -33t32.5 -78t-32.5 -78t-78 -33t-78 33t-32.5 78z" />
<glyph unicode="&#xd7;" horiz-adv-x="1064" d="M72 133l379 379l-379 381l80 84l380 -383l381 383l80 -84l-379 -381l379 -379l-82 -84l-379 381l-378 -381z" />
<glyph unicode="&#xd8;" horiz-adv-x="1628" d="M92 666q0 188 84 351t257 268.5t403 105.5q213 0 381 -95l100 131h115l-140 -182q244 -186 244 -514q0 -197 -92 -369t-266 -279.5t-394 -107.5q-215 0 -378 103l-107 -139h-117l148 194q-238 203 -238 533zM295 719q0 -250 139 -449l694 910q-143 129 -327 129 q-229 0 -367.5 -175t-138.5 -415zM498 197q139 -139 327 -140q154 0 273 94.5t177 234.5t58 294q0 250 -141 432z" />
<glyph unicode="&#xd9;" horiz-adv-x="1505" d="M51 1315v51h160l229 8l11 -8q-68 -78 -68 -248v-620q0 -211 120 -320.5t287.5 -109.5t293.5 110.5t126 304.5v672q0 41 -3 60.5t-18 42t-50 34t-95 17.5v57h398l10 -29l-15 -5q-9 -3 -34 -19.5t-43.5 -37t-33.5 -60t-15 -87.5v-639q0 -242 -162 -378t-404 -136 q-106 0 -199 28t-172 84t-125 157.5t-46 236.5v684q0 80 -21.5 103.5t-130.5 46.5zM512 1606v51l68 106h10l362 -215l-26 -67z" />
<glyph unicode="&#xda;" horiz-adv-x="1505" d="M51 1315v51h160l229 8l11 -8q-68 -78 -68 -248v-620q0 -211 120 -320.5t287.5 -109.5t293.5 110.5t126 304.5v672q0 41 -3 60.5t-18 42t-50 34t-95 17.5v57h398l10 -29l-15 -5q-9 -3 -34 -19.5t-43.5 -37t-33.5 -60t-15 -87.5v-639q0 -242 -162 -378t-404 -136 q-106 0 -199 28t-172 84t-125 157.5t-46 236.5v684q0 80 -21.5 103.5t-130.5 46.5zM600 1548l363 215h10l67 -106v-51l-413 -125z" />
<glyph unicode="&#xdb;" horiz-adv-x="1505" d="M51 1315v51h160l229 8l11 -8q-68 -78 -68 -248v-620q0 -211 120 -320.5t287.5 -109.5t293.5 110.5t126 304.5v672q0 41 -3 60.5t-18 42t-50 34t-95 17.5v57h398l10 -29l-15 -5q-9 -3 -34 -19.5t-43.5 -37t-33.5 -60t-15 -87.5v-639q0 -242 -162 -378t-404 -136 q-106 0 -199 28t-172 84t-125 157.5t-46 236.5v684q0 80 -21.5 103.5t-130.5 46.5zM455 1518l268 266h108l267 -266l-56 -48l-262 166h-8l-262 -166z" />
<glyph unicode="&#xdc;" horiz-adv-x="1505" d="M51 1315v51h160l229 8l11 -8q-68 -78 -68 -248v-620q0 -211 120 -320.5t287.5 -109.5t293.5 110.5t126 304.5v672q0 41 -3 60.5t-18 42t-50 34t-95 17.5v57h398l10 -29l-15 -5q-9 -3 -34 -19.5t-43.5 -37t-33.5 -60t-15 -87.5v-639q0 -242 -162 -378t-404 -136 q-106 0 -199 28t-172 84t-125 157.5t-46 236.5v684q0 80 -21.5 103.5t-130.5 46.5zM428 1624q0 45 33 78t78 33t77.5 -33t32.5 -78t-32.5 -78t-77.5 -33t-78 33t-33 78zM901 1624q0 45 33 78t78 33t77.5 -33t32.5 -78t-32.5 -78t-77.5 -33t-78 33t-33 78z" />
<glyph unicode="&#xdd;" horiz-adv-x="1198" d="M8 1315v51h98l209 8l9 -8q-39 -78 4 -147l254 -410q23 -35 59 -115l305 494q29 39 10.5 77t-92.5 50v51h334l8 -29q-80 -27 -141 -125l-375 -604v-422l-10 -104l184 -19l-8 -57l-494 -12v65q68 8 108 42t40 85v418l-393 621q-23 35 -49.5 57.5t-42.5 28.5zM434 1548 l363 215h10l67 -106v-51l-413 -125z" />
<glyph unicode="&#xde;" horiz-adv-x="1148" d="M104 1315v51h160l230 8l10 -8q-68 -78 -68 -248v-65h160q203 0 352.5 -85t149.5 -261q0 -143 -89 -238.5t-206 -127.5t-236 -19v57q168 4 249 85t81 200q0 156 -115.5 232.5t-294.5 76.5h-30l-21 -21v-766l-10 -104l195 -19l-9 -57l-503 -12v65q68 8 107.5 42t39.5 85 v979q0 80 -21.5 103.5t-130.5 46.5z" />
<glyph unicode="&#xdf;" horiz-adv-x="1136" d="M74 817v62l129 45v47q0 125 41 232.5t144.5 187t254.5 79.5q135 0 218 -63.5t83 -169.5q0 -57 -36 -118.5t-78 -105.5t-77.5 -101.5t-35.5 -106.5q0 -53 39 -103.5t94 -92.5l111 -88q55 -46 94 -112.5t39 -146.5q0 -137 -100.5 -212t-235.5 -75q-57 0 -115.5 12.5 t-108 48.5t-49.5 89q0 23 7.5 51.5t15.5 44.5l6 19h61q29 -195 185 -195q70 0 127 38t57 112q0 55 -37 106t-90 94l-106 87q-53 44 -90 106.5t-37 134.5q0 63 31.5 125.5t68.5 105.5t68.5 102.5t31.5 121.5q0 96 -55 151t-141 55q-217 0 -217 -378v-897l8 -99l-6 -6 l-297 -10v59q127 14 127 127v637h-129z" />
<glyph unicode="&#xe0;" d="M57 182q0 135 135.5 219t321.5 113l70 10q6 137 -9 219q-25 131 -129 131q-61 0 -115.5 -49t-76.5 -98l-25 -49h-65l-35 153q16 12 48 32t130.5 51.5t200.5 31.5q141 0 192.5 -64.5t51.5 -228.5v-471q0 -53 11 -74.5t44 -21.5q25 0 53.5 10t44.5 21l15 10l26 -43 q-10 -12 -29.5 -30.5t-77 -48.5t-110.5 -30q-61 0 -100 37t-39 109v49q-4 -8 -13.5 -21.5t-39 -46t-63.5 -58.5t-89 -47.5t-115 -21.5q-98 0 -155.5 60.5t-57.5 146.5zM180 1382v56l178 -19l174 -350l-63 -35zM238 219q0 -59 32.5 -93t81.5 -34q86 0 232 123v242l-64 -11 q-111 -18 -196.5 -73.5t-85.5 -153.5z" />
<glyph unicode="&#xe1;" d="M57 182q0 135 135.5 219t321.5 113l70 10q6 137 -9 219q-25 131 -129 131q-61 0 -115.5 -49t-76.5 -98l-25 -49h-65l-35 153q16 12 48 32t130.5 51.5t200.5 31.5q141 0 192.5 -64.5t51.5 -228.5v-471q0 -53 11 -74.5t44 -21.5q25 0 53.5 10t44.5 21l15 10l26 -43 q-10 -12 -29.5 -30.5t-77 -48.5t-110.5 -30q-61 0 -100 37t-39 109v49q-4 -8 -13.5 -21.5t-39 -46t-63.5 -58.5t-89 -47.5t-115 -21.5q-98 0 -155.5 60.5t-57.5 146.5zM238 219q0 -59 32.5 -93t81.5 -34q86 0 232 123v242l-64 -11q-111 -18 -196.5 -73.5t-85.5 -153.5z M369 1069l174 350l178 19v-56l-289 -348z" />
<glyph unicode="&#xe2;" d="M57 182q0 135 135.5 219t321.5 113l70 10q6 137 -9 219q-25 131 -129 131q-61 0 -115.5 -49t-76.5 -98l-25 -49h-65l-35 153q16 12 48 32t130.5 51.5t200.5 31.5q141 0 192.5 -64.5t51.5 -228.5v-471q0 -53 11 -74.5t44 -21.5q25 0 53.5 10t44.5 21l15 10l26 -43 q-10 -12 -29.5 -30.5t-77 -48.5t-110.5 -30q-61 0 -100 37t-39 109v49q-4 -8 -13.5 -21.5t-39 -46t-63.5 -58.5t-89 -47.5t-115 -21.5q-98 0 -155.5 60.5t-57.5 146.5zM174 1069l238 361h80l235 -361l-61 -39l-215 238l-215 -238zM238 219q0 -59 32.5 -93t81.5 -34 q86 0 232 123v242l-64 -11q-111 -18 -196.5 -73.5t-85.5 -153.5z" />
<glyph unicode="&#xe3;" d="M57 182q0 135 135.5 219t321.5 113l70 10q6 137 -9 219q-25 131 -129 131q-61 0 -115.5 -49t-76.5 -98l-25 -49h-65l-35 153q16 12 48 32t130.5 51.5t200.5 31.5q141 0 192.5 -64.5t51.5 -228.5v-471q0 -53 11 -74.5t44 -21.5q25 0 53.5 10t44.5 21l15 10l26 -43 q-10 -12 -29.5 -30.5t-77 -48.5t-110.5 -30q-61 0 -100 37t-39 109v49q-4 -8 -13.5 -21.5t-39 -46t-63.5 -58.5t-89 -47.5t-115 -21.5q-98 0 -155.5 60.5t-57.5 146.5zM153 1176.5q-3 23.5 7 61.5t24.5 75t52 62.5t91.5 25.5q47 0 86 -23.5t60.5 -51.5t51 -51.5t60.5 -23.5 q39 0 60.5 34t23.5 69l2 35h76v-28q0 -17 -8.5 -62.5t-24 -79t-54 -61.5t-92.5 -28q-47 0 -86 24t-60.5 51.5t-50 51t-59.5 23.5q-76 -12 -84 -129h-75q2 2 -1 25.5zM238 219q0 -59 32.5 -93t81.5 -34q86 0 232 123v242l-64 -11q-111 -18 -196.5 -73.5t-85.5 -153.5z" />
<glyph unicode="&#xe4;" d="M57 182q0 135 135.5 219t321.5 113l70 10q6 137 -9 219q-25 131 -129 131q-61 0 -115.5 -49t-76.5 -98l-25 -49h-65l-35 153q16 12 48 32t130.5 51.5t200.5 31.5q141 0 192.5 -64.5t51.5 -228.5v-471q0 -53 11 -74.5t44 -21.5q25 0 53.5 10t44.5 21l15 10l26 -43 q-10 -12 -29.5 -30.5t-77 -48.5t-110.5 -30q-61 0 -100 37t-39 109v49q-4 -8 -13.5 -21.5t-39 -46t-63.5 -58.5t-89 -47.5t-115 -21.5q-98 0 -155.5 60.5t-57.5 146.5zM154 1266q0 45 32.5 77.5t77.5 32.5t78 -32.5t33 -77.5t-33 -78t-78 -33t-77.5 33t-32.5 78zM238 219 q0 -59 32.5 -93t81.5 -34q86 0 232 123v242l-64 -11q-111 -18 -196.5 -73.5t-85.5 -153.5zM524 1266q0 45 33 77.5t78 32.5t77.5 -32.5t32.5 -77.5t-32.5 -78t-77.5 -33t-78 33t-33 78z" />
<glyph unicode="&#xe5;" d="M57 182q0 135 135.5 219t321.5 113l70 10q6 137 -9 219q-25 131 -129 131q-61 0 -115.5 -49t-76.5 -98l-25 -49h-65l-35 153q16 12 48 32t130.5 51.5t200.5 31.5q141 0 192.5 -64.5t51.5 -228.5v-471q0 -53 11 -74.5t44 -21.5q25 0 53.5 10t44.5 21l15 10l26 -43 q-10 -12 -29.5 -30.5t-77 -48.5t-110.5 -30q-61 0 -100 37t-39 109v49q-4 -8 -13.5 -21.5t-39 -46t-63.5 -58.5t-89 -47.5t-115 -21.5q-98 0 -155.5 60.5t-57.5 146.5zM238 219q0 -59 32.5 -93t81.5 -34q86 0 232 123v242l-64 -11q-111 -18 -196.5 -73.5t-85.5 -153.5z M258 1270q0 68 50 117t142.5 49t142.5 -49.5t50 -116.5q0 -70 -50 -121t-142.5 -51t-142.5 51t-50 121zM354 1268q0 -41 24.5 -71t72.5 -30q45 0 71.5 30t26.5 71t-25.5 69.5t-72.5 28.5q-49 0 -73 -28.5t-24 -69.5z" />
<glyph unicode="&#xe6;" horiz-adv-x="1452" d="M53 186q0 137 148.5 227.5t396.5 129.5v51q0 135 -27.5 207.5t-109.5 72.5q-123 0 -205 -165l-14 -31h-66l-35 153q16 12 48 32t130.5 51.5t198.5 31.5t150.5 -32.5t70.5 -104.5q111 137 283 137q143 0 243.5 -88t104.5 -246q-59 -18 -94 -24l-520 -92q2 -160 85 -271.5 t246 -111.5q156 0 263 94l4 4l22 -43q-4 -8 -13 -20.5t-43 -46t-74 -59.5t-104.5 -46.5t-133.5 -20.5q-133 0 -228.5 69t-134.5 198q-39 -113 -132 -190t-214 -77q-115 0 -180.5 60.5t-65.5 150.5zM233 219q0 -57 31 -92t86 -35q86 0 166 78t80 225v74q-363 -64 -363 -250z M758 571l422 74q0 8 -2 23.5t-14.5 54.5t-31 67.5t-55.5 53t-86 24.5q-96 0 -158.5 -86t-74.5 -211z" />
<glyph unicode="&#xe7;" horiz-adv-x="903" d="M78 442q0 201 118.5 352.5t319.5 151.5q113 0 218.5 -42t105.5 -113q0 -31 -21.5 -52.5t-56.5 -21.5t-64.5 24.5t-50 55t-58.5 55.5t-87 25q-119 0 -187.5 -110t-68.5 -265q0 -164 84 -276.5t254 -112.5q68 0 127 21.5t84 41.5l26 21l23 -43q-4 -8 -11.5 -19.5t-37 -42.5 t-64.5 -54.5t-94 -43t-125 -19.5h-12q-16 -41 -17 -69q0 -23 27 -41.5t59.5 -30.5t59 -43t26.5 -78q0 -78 -65.5 -139t-161.5 -61q-51 0 -97 18t-69 37l-20 18l30 66q70 -51 144 -51q47 0 76.5 20.5t29.5 52.5q0 23 -24.5 42.5t-54 31.5t-54 34.5t-24.5 49.5q0 43 67 152 q-168 27 -261 157.5t-93 300.5z" />
<glyph unicode="&#xe8;" d="M78 442q0 211 124 357.5t308 146.5q141 0 246.5 -90t109.5 -250q-53 -20 -94 -26l-510 -74l-20 -25q6 -156 89 -262t242 -106q156 0 263 94l4 4l22 -43q-4 -8 -13 -20.5t-40 -46t-67.5 -59.5t-99 -46.5t-130.5 -20.5q-207 0 -320.5 137t-113.5 330zM219 1382v56l178 -19 l174 -350l-63 -35zM246 580l430 55q0 10 -2 25.5t-15.5 55.5t-32 70.5t-57.5 56t-90 25.5q-98 0 -158.5 -81.5t-74.5 -206.5z" />
<glyph unicode="&#xe9;" d="M78 442q0 211 124 357.5t308 146.5q141 0 246.5 -90t109.5 -250q-53 -20 -94 -26l-510 -74l-20 -25q6 -156 89 -262t242 -106q156 0 263 94l4 4l22 -43q-4 -8 -13 -20.5t-40 -46t-67.5 -59.5t-99 -46.5t-130.5 -20.5q-207 0 -320.5 137t-113.5 330zM246 580l430 55 q0 10 -2 25.5t-15.5 55.5t-32 70.5t-57.5 56t-90 25.5q-98 0 -158.5 -81.5t-74.5 -206.5zM408 1069l174 350l178 19v-56l-289 -348z" />
<glyph unicode="&#xea;" d="M78 442q0 211 124 357.5t308 146.5q141 0 246.5 -90t109.5 -250q-53 -20 -94 -26l-510 -74l-20 -25q6 -156 89 -262t242 -106q156 0 263 94l4 4l22 -43q-4 -8 -13 -20.5t-40 -46t-67.5 -59.5t-99 -46.5t-130.5 -20.5q-207 0 -320.5 137t-113.5 330zM213 1069l238 361h79 l236 -361l-61 -39l-216 238l-215 -238zM246 580l430 55q0 10 -2 25.5t-15.5 55.5t-32 70.5t-57.5 56t-90 25.5q-98 0 -158.5 -81.5t-74.5 -206.5z" />
<glyph unicode="&#xeb;" d="M78 442q0 211 124 357.5t308 146.5q141 0 246.5 -90t109.5 -250q-53 -20 -94 -26l-510 -74l-20 -25q6 -156 89 -262t242 -106q156 0 263 94l4 4l22 -43q-4 -8 -13 -20.5t-40 -46t-67.5 -59.5t-99 -46.5t-130.5 -20.5q-207 0 -320.5 137t-113.5 330zM193 1266 q0 45 32.5 77.5t77.5 32.5t78 -32.5t33 -77.5t-33 -78t-78 -33t-77.5 33t-32.5 78zM246 580l430 55q0 10 -2 25.5t-15.5 55.5t-32 70.5t-57.5 56t-90 25.5q-98 0 -158.5 -81.5t-74.5 -206.5zM563 1266q0 45 33 77.5t78 32.5t77.5 -32.5t32.5 -77.5t-32.5 -78t-77.5 -33 t-78 33t-33 78z" />
<glyph unicode="&#xec;" horiz-adv-x="567" d="M0 1382v56l178 -19l174 -350l-63 -35zM51 823v56q133 31 218 55t104 33l20 8l2 -6q-23 -68 -22 -234v-549l-11 -110l175 -19l-9 -51l-450 -12v59q127 14 127 133v498q0 53 -3 77.5t-16.5 43t-42.5 18.5h-92z" />
<glyph unicode="&#xed;" horiz-adv-x="567" d="M51 823v56q133 31 218 55t104 33l20 8l2 -6q-23 -68 -22 -234v-549l-11 -110l175 -19l-9 -51l-450 -12v59q127 14 127 133v498q0 53 -3 77.5t-16.5 43t-42.5 18.5h-92zM188 1069l174 350l179 19v-56l-289 -348z" />
<glyph unicode="&#xee;" horiz-adv-x="567" d="M-6 1069l237 361h80l236 -361l-62 -39l-215 238l-215 -238zM51 823v56q133 31 218 55t104 33l20 8l2 -6q-23 -68 -22 -234v-549l-11 -110l175 -19l-9 -51l-450 -12v59q127 14 127 133v498q0 53 -3 77.5t-16.5 43t-42.5 18.5h-92z" />
<glyph unicode="&#xef;" horiz-adv-x="567" d="M-16 1266q0 45 32.5 77.5t77.5 32.5t78 -32.5t33 -77.5t-33 -78t-78 -33t-77.5 33t-32.5 78zM51 823v56q133 31 218 55t104 33l20 8l2 -6q-23 -68 -22 -234v-549l-11 -110l175 -19l-9 -51l-450 -12v59q127 14 127 133v498q0 53 -3 77.5t-16.5 43t-42.5 18.5h-92z M334 1266q0 45 32.5 77.5t77.5 32.5t78 -32.5t33 -77.5t-33 -78t-78 -33t-77.5 33t-32.5 78z" />
<glyph unicode="&#xf0;" horiz-adv-x="1077" d="M76 426q0 205 128 362.5t339 157.5q100 0 186 -35q-66 174 -182 308l-277 -168l-41 71l258 156q-141 127 -317 184l20 54q225 -45 404 -173l272 166l39 -71l-243 -150q150 -137 232.5 -324.5t82.5 -385.5q0 -264 -128 -433.5t-349 -169.5q-201 0 -312.5 132.5 t-111.5 318.5zM254 465q0 -160 69.5 -290t192.5 -130q119 0 201 128t82 353q0 86 -15.5 156t-71 130t-147.5 60q-139 0 -225 -114.5t-86 -292.5z" />
<glyph unicode="&#xf1;" horiz-adv-x="1171" d="M51 823v56q201 41 328 96l6 -6q-18 -68 -20 -250q61 94 165.5 160.5t223.5 66.5q233 0 233 -276v-484l-10 -108l174 -21l-8 -51l-441 -12v59q117 12 117 133v439q0 109 -37 152.5t-104 43.5q-72 0 -157 -39t-148 -104v-492l-11 -108l164 -21l-8 -51l-440 -12v59 q127 14 127 133v498q0 53 -3 77.5t-16.5 43t-42.5 18.5h-92zM298 1176.5q-3 23.5 7 61.5t24.5 75t52.5 62.5t91 25.5q47 0 86 -23.5t60.5 -51.5t51 -51.5t60.5 -23.5q39 0 60.5 34t23.5 69l2 35h76v-28q0 -17 -8 -62.5t-23.5 -79t-54.5 -61.5t-92 -28q-47 0 -86 24 t-60.5 51.5t-50.5 51t-59 23.5q-76 -12 -84 -129h-76q2 2 -1 25.5z" />
<glyph unicode="&#xf2;" horiz-adv-x="1089" d="M78 440q0 94 27.5 181.5t82 161t150.5 118.5t221 45q217 0 335 -126t118 -322q0 -133 -51.5 -249t-165 -195t-269.5 -79q-211 0 -329.5 131t-118.5 334zM266 487q0 -174 74 -308t215 -134q127 0 197.5 111.5t70.5 283.5q0 109 -27.5 204t-95 164t-165.5 69 q-133 0 -201 -114t-68 -276zM270 1382v56l179 -19l174 -350l-64 -35z" />
<glyph unicode="&#xf3;" horiz-adv-x="1089" d="M78 440q0 94 27.5 181.5t82 161t150.5 118.5t221 45q217 0 335 -126t118 -322q0 -133 -51.5 -249t-165 -195t-269.5 -79q-211 0 -329.5 131t-118.5 334zM266 487q0 -174 74 -308t215 -134q127 0 197.5 111.5t70.5 283.5q0 109 -27.5 204t-95 164t-165.5 69 q-133 0 -201 -114t-68 -276zM459 1069l174 350l178 19v-56l-289 -348z" />
<glyph unicode="&#xf4;" horiz-adv-x="1089" d="M78 440q0 94 27.5 181.5t82 161t150.5 118.5t221 45q217 0 335 -126t118 -322q0 -133 -51.5 -249t-165 -195t-269.5 -79q-211 0 -329.5 131t-118.5 334zM264 1069l238 361h80l235 -361l-61 -39l-215 238l-215 -238zM266 487q0 -174 74 -308t215 -134q127 0 197.5 111.5 t70.5 283.5q0 109 -27.5 204t-95 164t-165.5 69q-133 0 -201 -114t-68 -276z" />
<glyph unicode="&#xf5;" horiz-adv-x="1089" d="M78 440q0 94 27.5 181.5t82 161t150.5 118.5t221 45q217 0 335 -126t118 -322q0 -133 -51.5 -249t-165 -195t-269.5 -79q-211 0 -329.5 131t-118.5 334zM243 1176.5q-3 23.5 7 61.5t24.5 75t52.5 62.5t91 25.5q47 0 86 -23.5t60.5 -51.5t51 -51.5t60.5 -23.5 q39 0 60.5 34t23.5 69l2 35h76v-28q0 -17 -8.5 -62.5t-23.5 -79t-54 -61.5t-93 -28q-47 0 -85.5 24t-60 51.5t-50.5 51t-60 23.5q-76 -12 -84 -129h-75q2 2 -1 25.5zM266 487q0 -174 74 -308t215 -134q127 0 197.5 111.5t70.5 283.5q0 109 -27.5 204t-95 164t-165.5 69 q-133 0 -201 -114t-68 -276z" />
<glyph unicode="&#xf6;" horiz-adv-x="1089" d="M78 440q0 94 27.5 181.5t82 161t150.5 118.5t221 45q217 0 335 -126t118 -322q0 -133 -51.5 -249t-165 -195t-269.5 -79q-211 0 -329.5 131t-118.5 334zM244 1266q0 45 32.5 77.5t77.5 32.5t78 -32.5t33 -77.5t-33 -78t-78 -33t-77.5 33t-32.5 78zM266 487 q0 -174 74 -308t215 -134q127 0 197.5 111.5t70.5 283.5q0 109 -27.5 204t-95 164t-165.5 69q-133 0 -201 -114t-68 -276zM614 1266q0 45 33 77.5t78 32.5t78 -32.5t33 -77.5t-33 -78t-78 -33t-78 33t-33 78z" />
<glyph unicode="&#xf7;" horiz-adv-x="1064" d="M74 457v112h917v-112h-917zM410 121q0 51 35.5 87t87 36t87 -36t35.5 -87t-35.5 -87t-87 -36t-87 36t-35.5 87zM410 905q0 51 35.5 87t87 36t87 -36t35.5 -87t-35.5 -87t-87 -36t-87 36t-35.5 87z" />
<glyph unicode="&#xf8;" horiz-adv-x="1089" d="M78 440q0 94 27.5 181.5t82 161t150.5 118.5t221 45q143 0 248 -61l74 98h106l-110 -147q135 -123 135 -338q0 -133 -51.5 -249t-165 -195t-269.5 -79q-137 0 -243 62l-72 -98h-109l113 149q-137 127 -137 352zM266 487q0 -152 49 -262l412 553q-74 98 -192 99 q-133 0 -201 -114t-68 -276zM362 143q72 -98 193 -98q127 0 197.5 111.5t70.5 283.5q0 139 -49 256z" />
<glyph unicode="&#xf9;" horiz-adv-x="1144" d="M43 823v58q199 35 311 75l8 -6q-18 -57 -18 -215v-438q0 -111 36 -154t103 -43q72 0 152 39t145 107v438q0 53 -3 77.5t-16 43t-42 18.5h-68v58q197 35 307 75l9 -6q-18 -57 -19 -215v-540q0 -80 25.5 -98.5t89.5 -18.5h57l-6 -55q-223 -23 -336 -41l-8 6q18 59 18 110 v107q-63 -94 -162.5 -162t-217.5 -68q-231 0 -232 275v434q0 53 -3 77.5t-16.5 43t-41.5 18.5h-72zM291 1382v56l178 -19l174 -350l-63 -35z" />
<glyph unicode="&#xfa;" horiz-adv-x="1144" d="M43 823v58q199 35 311 75l8 -6q-18 -57 -18 -215v-438q0 -111 36 -154t103 -43q72 0 152 39t145 107v438q0 53 -3 77.5t-16 43t-42 18.5h-68v58q197 35 307 75l9 -6q-18 -57 -19 -215v-540q0 -80 25.5 -98.5t89.5 -18.5h57l-6 -55q-223 -23 -336 -41l-8 6q18 59 18 110 v107q-63 -94 -162.5 -162t-217.5 -68q-231 0 -232 275v434q0 53 -3 77.5t-16.5 43t-41.5 18.5h-72zM479 1069l174 350l178 19v-56l-288 -348z" />
<glyph unicode="&#xfb;" horiz-adv-x="1144" d="M43 823v58q199 35 311 75l8 -6q-18 -57 -18 -215v-438q0 -111 36 -154t103 -43q72 0 152 39t145 107v438q0 53 -3 77.5t-16 43t-42 18.5h-68v58q197 35 307 75l9 -6q-18 -57 -19 -215v-540q0 -80 25.5 -98.5t89.5 -18.5h57l-6 -55q-223 -23 -336 -41l-8 6q18 59 18 110 v107q-63 -94 -162.5 -162t-217.5 -68q-231 0 -232 275v434q0 53 -3 77.5t-16.5 43t-41.5 18.5h-72zM285 1069l237 361h80l236 -361l-62 -39l-215 238l-215 -238z" />
<glyph unicode="&#xfc;" horiz-adv-x="1144" d="M43 823v58q199 35 311 75l8 -6q-18 -57 -18 -215v-438q0 -111 36 -154t103 -43q72 0 152 39t145 107v438q0 53 -3 77.5t-16 43t-42 18.5h-68v58q197 35 307 75l9 -6q-18 -57 -19 -215v-540q0 -80 25.5 -98.5t89.5 -18.5h57l-6 -55q-223 -23 -336 -41l-8 6q18 59 18 110 v107q-63 -94 -162.5 -162t-217.5 -68q-231 0 -232 275v434q0 53 -3 77.5t-16.5 43t-41.5 18.5h-72zM264 1266q0 45 33 77.5t78 32.5t77.5 -32.5t32.5 -77.5t-32.5 -78t-77.5 -33t-78 33t-33 78zM635 1266q0 45 32.5 77.5t78 32.5t78 -32.5t32.5 -77.5t-32.5 -78t-78 -33 t-78 33t-32.5 78z" />
<glyph unicode="&#xfd;" horiz-adv-x="944" d="M2 870v52h96l209 8l8 -8q-18 -37 -18 -92.5t16 -96.5l166 -416q23 -63 39 -122l232 528q45 104 -113 147v52h285l10 -33q-37 -20 -74 -109l-354 -805q-2 -6 -32 -73l-46 -103q-16 -35 -53 -98t-68 -97t-77 -61.5t-93 -27.5q-43 0 -66.5 24.5t-23.5 61.5q0 35 24.5 59.5 t75.5 24.5q150 0 217 153l66 154q-31 88 -49 133l-262 627q-43 95 -115 118zM412 1069l174 350l178 19v-56l-289 -348z" />
<glyph unicode="&#xfe;" horiz-adv-x="1064" d="M8 1366v55q104 23 187.5 46.5t111.5 35.5l31 10l6 -6q-20 -76 -20 -233v-305l-5 -183q37 47 67 75t91.5 56.5t136.5 28.5q176 0 274.5 -132t98.5 -314q0 -213 -136 -369t-390 -156q-59 0 -137 13v-236l-11 -117h215l-8 -49q-324 -39 -471 -88v60q66 37 86.5 76.5 t20.5 115.5v1477q0 53 -3 77.5t-16.5 43t-42.5 18.5h-86zM324 164q0 -111 147 -111q158 0 248 105.5t90 281.5q0 160 -69.5 273.5t-198.5 113.5q-106 0 -217 -86v-577z" />
<glyph unicode="&#xff;" horiz-adv-x="944" d="M2 870v52h96l209 8l8 -8q-18 -37 -18 -92.5t16 -96.5l166 -416q23 -63 39 -122l232 528q45 104 -113 147v52h285l10 -33q-37 -20 -74 -109l-354 -805q-2 -6 -32 -73l-46 -103q-16 -35 -53 -98t-68 -97t-77 -61.5t-93 -27.5q-43 0 -66.5 24.5t-23.5 61.5q0 35 24.5 59.5 t75.5 24.5q150 0 217 153l66 154q-31 88 -49 133l-262 627q-43 95 -115 118zM197 1266q0 45 32.5 77.5t77.5 32.5t78 -32.5t33 -77.5t-33 -78t-78 -33t-77.5 33t-32.5 78zM567 1266q0 45 33 77.5t78 32.5t77.5 -32.5t32.5 -77.5t-32.5 -78t-77.5 -33t-78 33t-33 78z" />
<glyph unicode="&#x152;" horiz-adv-x="2031" d="M92 662q0 293 205 511t545 218q63 0 169.5 -12.5t155.5 -12.5h600l148 8l-64 -342h-69q8 152 -42 203t-179 51h-269l-20 -20v-533h379l16 117l76 12v-360h-96v151h-355l-20 -20v-438l-10 -115h321q127 0 175 43t128 211h70l-76 -334h-721q-76 0 -179 -12.5t-165 -12.5 q-326 0 -524.5 200t-198.5 487zM295 723q0 -119 36 -234.5t104.5 -214t182 -158t254.5 -59.5q219 0 220 129v1000q0 123 -226 123q-281 0 -426 -171t-145 -415z" />
<glyph unicode="&#x153;" horiz-adv-x="1703" d="M78 440q0 94 27.5 181.5t82 161t150.5 118.5t221 45q260 0 367 -196q127 197 346 196q141 0 246.5 -90t109.5 -250q-53 -20 -94 -26l-508 -76l-22 -25q6 -156 89 -261t242 -105q156 0 262 94l5 4l22 -43q-4 -8 -13 -20.5t-43 -46t-73 -59.5t-103.5 -46.5t-134.5 -20.5 q-229 0 -342 199q-135 -199 -389 -199q-211 0 -329.5 131t-118.5 334zM266 487q0 -174 74 -308t215 -134q127 0 197.5 111.5t70.5 283.5q0 109 -27.5 204t-95 164t-165.5 69q-133 0 -201 -114t-68 -276zM1008 580l430 55q0 10 -2 25.5t-15.5 55.5t-32 70.5t-57.5 56 t-90 25.5q-98 0 -158.5 -81.5t-74.5 -206.5z" />
<glyph unicode="&#x178;" horiz-adv-x="1198" d="M8 1315v51h98l209 8l9 -8q-39 -78 4 -147l254 -410q23 -35 59 -115l305 494q29 39 10.5 77t-92.5 50v51h334l8 -29q-80 -27 -141 -125l-375 -604v-422l-10 -104l184 -19l-8 -57l-494 -12v65q68 8 108 42t40 85v418l-393 621q-23 35 -49.5 57.5t-42.5 28.5zM262 1624 q0 45 33 78t78 33t77.5 -33t32.5 -78t-32.5 -78t-77.5 -33t-78 33t-33 78zM735 1624q0 45 33 78t78 33t77.5 -33t32.5 -78t-32.5 -78t-77.5 -33t-78 33t-33 78z" />
<glyph unicode="&#x2c6;" horiz-adv-x="1024" d="M236 1069l237 361h80l235 -361l-61 -39l-215 238l-215 -238z" />
<glyph unicode="&#x2dc;" horiz-adv-x="1024" d="M214 1176.5q-3 23.5 7 61.5t24.5 75t52.5 62.5t91 25.5q47 0 86 -23.5t60.5 -51.5t51 -51.5t60.5 -23.5q39 0 60.5 34t23.5 69l2 35h76v-28q0 -17 -8 -62.5t-23.5 -79t-54.5 -61.5t-92 -28q-47 0 -86 24t-60.5 51.5t-50 51t-59.5 23.5q-76 -12 -84 -129h-76q2 2 -1 25.5z " />
<glyph unicode="&#x2000;" horiz-adv-x="890" />
<glyph unicode="&#x2001;" horiz-adv-x="1783" />
<glyph unicode="&#x2002;" horiz-adv-x="890" />
<glyph unicode="&#x2003;" horiz-adv-x="1783" />
<glyph unicode="&#x2004;" horiz-adv-x="593" />
<glyph unicode="&#x2005;" horiz-adv-x="444" />
<glyph unicode="&#x2006;" horiz-adv-x="296" />
<glyph unicode="&#x2007;" horiz-adv-x="296" />
<glyph unicode="&#x2008;" horiz-adv-x="221" />
<glyph unicode="&#x2009;" horiz-adv-x="356" />
<glyph unicode="&#x200a;" horiz-adv-x="98" />
<glyph unicode="&#x2010;" horiz-adv-x="737" d="M127 444v136h483v-136h-483z" />
<glyph unicode="&#x2011;" horiz-adv-x="737" d="M127 444v136h483v-136h-483z" />
<glyph unicode="&#x2013;" horiz-adv-x="1097" d="M129 463v112h840v-112h-840z" />
<glyph unicode="&#x2014;" horiz-adv-x="1896" d="M129 463v112h1638v-112h-1638z" />
<glyph unicode="&#x2018;" horiz-adv-x="413" d="M88 1182q0 180 203 315l45 -49q-133 -104 -133 -178q0 -72 137 -140v-71l-158 -84q-94 88 -94 207z" />
<glyph unicode="&#x2019;" horiz-adv-x="411" d="M90 1343v72l158 84q94 -88 94 -207q0 -180 -203 -315l-45 49q133 104 133 178q0 71 -137 139z" />
<glyph unicode="&#x201a;" horiz-adv-x="477" d="M113 88v72l157 84q94 -88 95 -207q0 -180 -203 -316l-45 50q133 104 133 178q0 71 -137 139z" />
<glyph unicode="&#x201c;" horiz-adv-x="745" d="M88 1182q0 180 203 315l45 -49q-133 -104 -133 -178q0 -72 137 -140v-71l-158 -84q-94 88 -94 207zM420 1182q0 180 203 315l45 -49q-133 -104 -133 -178q0 -72 137 -140v-71l-158 -84q-94 88 -94 207z" />
<glyph unicode="&#x201d;" horiz-adv-x="743" d="M90 1343v72l158 84q94 -88 94 -207q0 -180 -203 -315l-45 49q133 104 133 178q0 71 -137 139zM422 1343v72l158 84q94 -88 94 -207q0 -180 -203 -315l-45 49q133 104 133 178q0 71 -137 139z" />
<glyph unicode="&#x201e;" horiz-adv-x="804" d="M113 88v72l157 84q94 -88 95 -207q0 -180 -203 -316l-45 50q133 104 133 178q0 71 -137 139zM440 88v72l158 84q94 -88 94 -207q0 -180 -203 -316l-45 50q133 104 134 178q-1 71 -138 139z" />
<glyph unicode="&#x2022;" horiz-adv-x="774" d="M104 524.5q0 118.5 81 200.5t202 82t202 -82t81 -200.5t-81 -200.5t-202 -82t-202 82t-81 200.5z" />
<glyph unicode="&#x2026;" horiz-adv-x="1585" d="M117 98.5q0 51.5 35.5 87t87 35.5t87 -35.5t35.5 -87t-35.5 -87.5t-87 -36t-87 36t-35.5 87.5zM670 98.5q0 51.5 35.5 87t87 35.5t87 -35.5t35.5 -87t-35.5 -87.5t-87 -36t-87 36t-35.5 87.5zM1223 98.5q0 51.5 35.5 87t87 35.5t87 -35.5t35.5 -87t-35.5 -87.5t-87 -36 t-87 36t-35.5 87.5z" />
<glyph unicode="&#x202f;" horiz-adv-x="356" />
<glyph unicode="&#x2039;" horiz-adv-x="673" d="M76 510v8q72 51 446 428l60 -20l-269 -412l269 -412l-60 -20q-378 381 -446 428z" />
<glyph unicode="&#x203a;" horiz-adv-x="673" d="M92 102l268 412l-268 412l60 20q375 -377 446 -428v-8q-68 -47 -446 -428z" />
<glyph unicode="&#x205f;" horiz-adv-x="444" />
<glyph unicode="&#x20ac;" horiz-adv-x="1083" d="M68 406v81h104q-2 16 -2 50q0 29 4 90h-106v82h120q47 193 179.5 320.5t330.5 127.5q160 0 326 -67l-66 -220h-61q0 102 -50 155.5t-171 53.5q-129 0 -210 -105.5t-101 -264.5h546l-24 -82h-529v-23q0 -68 9 -117h481l-25 -81h-440q37 -141 120 -229.5t208 -88.5 q82 0 150.5 17.5t96.5 33.5l27 17l29 -45q-4 -6 -14.5 -15.5t-43 -32t-69.5 -41t-96.5 -33t-120.5 -14.5q-205 0 -329 121t-159 310h-114z" />
<glyph unicode="&#x2122;" horiz-adv-x="1460" d="M55 1212l27 158q33 -4 70 -4h374l70 4l-25 -158h-43q0 59 -20.5 81t-69.5 22h-59v-408l-4 -45l82 -8l-2 -37l-246 -4v41q57 4 57 53v408h-51q-39 0 -63.5 -21.5t-51.5 -81.5h-45zM625 813v41q55 4 59 51l16 365q2 31 -9 41t-58 20v35h72l155 4l2 -4l27 -76l88 -254 l12 -47l121 320l20 57h25l150 4l4 -4q-2 -4 -7.5 -11t-11.5 -35t-6 -58l16 -361l-2 -41l74 -6l-6 -37l-236 -4v41q57 4 58 47l-14 404l-185 -490l-51 8l-174 471l-16 -389l-5 -45l76 -6l-4 -37z" />
</font>
</defs>
</svg>
